↑↓Torrent.by
Поиск
Логин: Регистрация
Пароль: Восстановить пароль
Загрузка...

Последний шанс (2017) WEB-DL 1080p

Скачать posledniy-shans-2017-web-dl-1080p.torrent
U Магнитная ссылка Размер: 2.69 GB Раздают: 163 Качают: 37 Добавлен: 2018-04-30 00:08:00
Последний шанс (2017) WEB-DL 1080p

Название: Последний шанс (Без шансов)
Год выхода: 2017
Жанр:  Боевик
Режиссер: Михаил Погосов
В ролях: Дмитрий Клепацкий, Наталья Губина, Александр Носик, Игорь Жижикин, Мария Малиновская, Петар Зекавица, Василий Шлыков, Игорь Трошин, Марианна Васильева

О фильме:
Молодая перспективная журналистика Юлия в погоне за интересным материалом о готовящейся спецоперации ФСБ попадает в опасную ситуацию, принимающую неожиданный оборот - девушка оказывается в руках преступников. Ей на выручку приходит бывший командир спецназа Андрей. Он - "волк-одиночка", жёсткий, сильный, но справедливый, не доверяет в жизни никому, особенно женщинам. Но Юля, считающая мужчину своим ангелом-хранителем, не хочет с ним расставаться, да и он теперь считает себя в ответе за девушку...

Страна: Россия
Студия: Berg Sound
Продолжительность: 01:30:56
Перевод: Не требуется

Файл
Качество видео: WEB-DL 1080p
Видео: H.264/AVC, 1920x1080, ~3914 Kbps
Аудио: AC-3, 2 ch, 192 Kbps


[+] M/I
Общее
Уникальный идентификатор                 : 220239909618676299023564561066965213559 (0xA5B0A9E77B381CDF93B048EC1D562177)
Полное имя                               : E:NNMПоследний шансPoslednij shans 2017 WEB-DL 1080p-LQ.mkv
Формат                                   : Matroska
Версия формата                           : Version 4 / Version 2
Размер файла                             : 2,69 Гбайт
Продолжительность                        : 1 ч. 32 м.
Общий поток                              : 4190 Кбит/сек
Дата кодирования                         : UTC 2018-04-28 19:43:50
Программа кодирования                    : mkvmerge v7.8.0 ('River Man') 32bit built on Mar 27 2015 16:18:02
Библиотека кодирования                   : libebml v1.3.1 + libmatroska v1.4.2

Видео
Идентификатор                            : 1
Формат                                   : AVC
Формат/Информация                        : Advanced Video Codec
Профиль формата                          : High@L4
Настройки формата                        : CABAC / 3 Ref Frames
Параметр CABAC формата                   : Да
Параметр RefFrames формата               : 3 кадра
Идентификатор кодека                     : V_MPEG4/ISO/AVC
Продолжительность                        : 1 ч. 32 м.
Битрейт                                  : 3996 Кбит/сек
Ширина                                   : 1920 пикселей
Высота                                   : 1080 пикселей
Соотношение сторон                       : 16:9
Режим частоты кадров                     : Постоянный
Частота кадров                           : 25,000 кадров/сек
Цветовое пространство                    : YUV
Субдискретизация насыщенности            : 4:2:0
Битовая глубина                          : 8 бит
Тип развёртки                            : Прогрессивная
Бит/(Пиксели*Кадры)                      : 0.077
Размер потока                            : 2,57 Гбайт (95%)
Default                                  : Да
Forced                                   : Нет

Аудио
Идентификатор                            : 2
Формат                                   : AC-3
Формат/Информация                        : Audio Coding 3
Идентификатор кодека                     : A_AC3
Продолжительность                        : 1 ч. 32 м.
Вид битрейта                             : Постоянный
Битрейт                                  : 192 Кбит/сек
Каналы                                   : 2 канала
Расположение каналов                     : Front: L R
Частота                                  : 48,0 КГц
Частота кадров                           : 31,250 кадров/сек (1536 SPF)
Битовая глубина                          : 16 бит
Метод сжатия                             : С потерями
Размер потока                            : 126 Мбайт (5%)
ServiceKind                       : Complete Main
Default                                  : Да
Forced                                   : Нет



Скриншоты:
[+] Всего файлов в раздаче - 1:
Poslednij shans 2017 WEB-DL 1080p-LQ.mkv2.69 GB

Текущая раздача:
ДатаКомментарии    РазмерПиры
2018-04-30 U Последний шанс (2017) WEB-DL 1080p 2.69 GB ↑ 163 ↓ 37

Показать еще раздачи по запросу последний:
2018-05-11 U Последний раз видели в Айдахо / Last Seen in Idaho (2018) WEBRip 720p | L2 2.39 GB ↑ 50 ↓ 15
2018-05-11 U Последний раз видели в Айдахо / Last Seen in Idaho (2018) WEBRip | L2 1.41 GB ↑ 66 ↓ 25
2018-04-29 U Последний шанс (2017) WEB-DLRip от Files-x 1.37 GB ↑ 207 ↓ 66
2018-04-29 U Астрал 4: Последний ключ / Insidious: The Last Key (2018) HDRip от Scarabey | Лицензия 1.45 GB ↑ 47 ↓ 14
2018-04-28 U Астрал 4: Последний ключ / Insidious: The Last Key (2018) BDRip-AVC от HELLYWOOD | Лицензия 2.18 GB ↑ 34 ↓ 25
2018-04-28 U Астрал 4: Последний ключ / Insidious: The Last Key (2018) BDRip от ExKinoRay | Лицензия 1К2.18 GB ↑ 61 ↓ 23
2018-04-28 U Астрал 4: Последний ключ / Insidious: The Last Key (2018) BDRip от ExKinoRay | Лицензия 1.46 GB ↑ 81 ↓ 27

Отзывы
Зарегистрируйтесь чтобы добавить комментарий.
Обратная связь
Copyleft ©