↑↓Torrent.by
Поиск
Логин: Регистрация
Пароль: Восстановить пароль
Загрузка...

Близкие (2017) WEB-DL 1080p

Скачать blizkie-2017-web-dl-1080p.torrent
U Магнитная ссылка Размер: 3.05 GB Раздают: 146 Качают: 65 Добавлен: 2018-04-30 00:08:19
Близкие (2017) WEB-DL 1080p

Название: Близкие
Год выхода: 2017
Жанр: Драма
Режиссер: Ксения Зуева
В ролях: Елена Чекмазова, Андрей Стоянов, Надежда Иванова, Данил Можаев, Лариса Морозова, Данил Стеклов, Алиса Глинка, Наталья Павленкова, Наталия Меньшова, Геннадий Вырыпаев

О фильме: История одной семьи, проживающей на окраине Москвы. Члены семьи погрязли в семейных ссорах, живут в дискомфорте, в давящей атмосфере и обрушивают свои негативные эмоции друг на друга, забыв о любви, забыв, кем они приходятся друг другу, забыв о сострадании и Боге. Одна большая трагедия заставит их очнуться, измениться и испытать катарсис, но будет уже поздно.

Страна: Россия
Студия: OvalGrid, ВЕГА Фильм
Продолжительность: 01:44:11
Перевод: Оригинальный

Файл
Кодек: MPEG-4 AVC
Качество: WEB-DL 1080p
Видео: 1912x1032, 3996kb/s, 24.000fps
Звук: 192kb/s, 2ch 48000kHz, AC3
Субтитры: Отсутствуют

РЕКЛАМА ОТСУТСТВУЕТ


[+] MI
Общее
Уникальный идентификатор                 : 233841076836339822252026299965840862091 (0xAFEC2738D0C72F5DA49FE26668BCAB8B)
Полное имя                               : C:UsersRomaHomeVideosБлизкие RUS [WEB-DL 1080p].mkv
Формат                                   : Matroska
Версия формата                           : Version 4 / Version 2
Размер файла                             : 3,05 Гбайт
Продолжительность                        : 1 ч. 44 м.
Общий поток                              : 4190 Кбит/сек
Название фильма                          : Blizkye.2017.WEB-DL.(1080p).Getty
Дата кодирования                         : UTC 2018-04-28 19:09:11
Программа кодирования                    : mkvmerge v7.8.0 ('River Man') 32bit built on Mar 27 2015 16:18:02
Библиотека кодирования                   : libebml v1.3.1 + libmatroska v1.4.2

Видео
Идентификатор                            : 1
Формат                                   : AVC
Формат/Информация                        : Advanced Video Codec
Профиль формата                          : High@L4
Настройки формата                        : CABAC / 3 Ref Frames
Параметр CABAC формата                   : Да
Параметр RefFrames формата               : 3 кадра
Параметр GOP формата                     : M=1, N=72
Идентификатор кодека                     : V_MPEG4/ISO/AVC
Продолжительность                        : 1 ч. 44 м.
Битрейт                                  : 3996 Кбит/сек
Ширина                                   : 1912 пикселей
Высота                                   : 1032 пикселя
Соотношение сторон                       : 1,85:1
Режим частоты кадров                     : Постоянный
Частота кадров                           : 24,000 кадра/сек
Цветовое пространство                    : YUV
Субдискретизация насыщенности            : 4:2:0
Битовая глубина                          : 8 бит
Тип развёртки                            : Прогрессивная
Бит/(Пиксели*Кадры)                      : 0.084
Размер потока                            : 2,91 Гбайт (95%)
Default                                  : Да
Forced                                   : Нет

Аудио
Идентификатор                            : 2
Формат                                   : AC-3
Формат/Информация                        : Audio Coding 3
Идентификатор кодека                     : A_AC3
Продолжительность                        : 1 ч. 44 м.
Вид битрейта                             : Постоянный
Битрейт                                  : 192 Кбит/сек
Каналы                                   : 2 канала
Расположение каналов                     : Front: L R
Частота                                  : 48,0 КГц
Частота кадров                           : 31,250 кадров/сек (1536 SPF)
Битовая глубина                          : 16 бит
Метод сжатия                             : С потерями
Размер потока                            : 143 Мбайт (5%)
Default                                  : Да
Forced                                   : Нет



Скриншоты:
[+] Всего файлов в раздаче - 1:
Близкие RUS [WEB-DL 1080p].mkv3.05 GB

Текущая раздача:
ДатаКомментарии    РазмерПиры
2018-04-30 U Близкие (2017) WEB-DL 1080p 3.05 GB ↑ 146 ↓ 65

Показать еще раздачи по запросу близкие:
2018-05-02 U Близкие (2017) WEB-DLRip от Files-x 1.31 GB ↑ 100 ↓ 27
2016-12-26 U Чужие и близкие [01-04 из 04] (2016) SATRip-AVC от Korsar 2.03 GB ↑ 279 ↓ 51
2014-03-14 U Близкие враги / Enemies Closer (2013) BDRip 720p от CINEMANIA | P2, A, L1 5.12 GB ↑ 35 ↓ 26
2014-02-20 U Близкие враги / Enemies Closer (2013) BDRip 720p от CINEMANIA | A, L1 4.86 GB ↑ 77 ↓ 54
2014-02-19 U Близкие враги / Enemies Closer (2013) HDRip | Д. Есарев 1.45 GB ↑ 57 ↓ 34
2013-12-09 U Близкие враги / Enemies Closer (2013) HDRip | L1 1.45 GB ↑ 170 ↓ 106
2013-12-06 U Близкие враги / Enemies Closer (2013) DVDRip-AVC | L1 10К1.52 GB ↑ 993 ↓ 388

Отзывы
Зарегистрируйтесь чтобы добавить комментарий.
Обратная связь
Copyleft ©