↑↓Torrent.by
Поиск
Логин: Регистрация
Пароль: Восстановить пароль
Загрузка...

ДДТ - Концерт в Москве [26.04] (2018) WEBRip 1080p

Скачать ddt-koncert-v-moskve-26-04-2018-webrip-1080p.torrent
U Магнитная ссылка Размер: 2.61 GB Раздают: 112 Качают: 72 Добавлен: 2018-04-30 08:52:22
ДДТ - Концерт в Москве [26.04] (2018) WEBRip 1080p

Исполнитель: ДДТ
Жанр:  ROCK
Год выпуска: 2018
Продолжительность: 01:23:46

Описание: Концерт группы «ДДТ» в Москве 26 апреля 2018 года .

Формат: MKV
Качество: WEBRip 1080p
Видео кодек: H.264
Аудио кодек: AAC
Видео: H.264, 1920x1080, ~4250 Kbps, 25fps
Аудио: AAC, 2 ch, 192 Kbps, 48000Hz
[+] MedaInfo
Complete name               : D:DDT_2018.mkv
Format                      : Matroska
Format version              : Version 4 / Version 2
File size                   : 2.61 GiB
Duration                    : 1 h 23 min
Overall bit rate            : 4 468 kb/s
Encoded date                : UTC 2018-04-29 22:31:25
Writing application         : mkvmerge v8.3.0 ('Over the Horizon') 64bit
Writing library             : libebml v1.3.1 + libmatroska v1.4.2

Video
ID                          : 1
Format                      : AVC
Format/Info                 : Advanced Video Codec
Format profile              : Main@L4.1
Format settings, CABAC      : Yes
Format settings, ReFrames   : 4 frames
Codec ID                    : V_MPEG4/ISO/AVC
Duration                    : 1 h 23 min
Bit rate                    : 4 276 kb/s
Width                       : 1 920 pixels
Height                      : 1 080 pixels
Display aspect ratio        : 16:9
Frame rate mode             : Constant
Frame rate                  : 25.000 FPS
Standard                    : PAL
Color space                 : YUV
Chroma subsampling          : 4:2:0
Bit depth                   : 8 bits
Scan type                   : Progressive
Bits/(Pixel*Frame)          : 0.082
Stream size                 : 2.50 GiB (96%)
Language                    : English
Default                     : Yes
Forced                      : No
Color range                 : Limited
Color primaries             : BT.709
Transfer characteristics    : BT.709
Matrix coefficients         : BT.709

Audio
ID                          : 2
Format                      : AAC
Format/Info                 : Advanced Audio Codec
Format profile              : LC
Codec ID                    : A_AAC
Duration                    : 1 h 23 min
Bit rate                    : 192 kb/s
Channel(s)                  : 2 channels
Channel positions           : Front: L R
Sampling rate               : 48.0 kHz
Frame rate                  : 46.875 FPS (1024 spf)
Compression mode            : Lossy
Stream size                 : 113 MiB (4%)
Language                    : English
Default                     : Yes
Forced                      : No



Скриншоты:
[+] Всего файлов в раздаче - 1:
DDT_2018.mkv2.61 GB

Текущая раздача:
ДатаКомментарии    РазмерПиры
2018-04-30 U ДДТ - Концерт в Москве [26.04] (2018) WEBRip 1080p 2.61 GB ↑ 112 ↓ 72

Показать еще раздачи по запросу концерт:
2018-07-15 U Кино и Виктор Цой. Концерт в СКК "Олимпийский" (1990) SATRip-AVC от ExKinoRay 746.56 MB ↑ 48 ↓ 22
2018-06-29 U Виктор Цой - Концерт в Донецке (1990) DVDRip-AVC от ExKinoRay 746.07 MB ↑ 75 ↓ 52
2018-05-09 U Владимир Пресняков - 50-лет. Концерт в Крокусе [эфир от 06.05] (2018) HDTVRip 720p 1.98 GB ↑ 64 ↓ 21
2018-05-03 U Stand Up Концерт Тимура Каргинова [эфир от 02.05] (2018) HDTV 1080i 1.56 GB ↑ 86 ↓ 78
2018-04-29 U ЧижCo - Концерт у Маргулиса на НТВ [29.04] (2018) HDTV 1080i 4.49 GB ↑ 252 ↓ 49
2018-04-16 U Михаил Жванецкий - Концерт у Маргулиса на НТВ [15.04] (2018) HDTV 1080i 3.20 GB ↑ 119 ↓ 50
2018-04-01 U Александр Розенбаум - Концерт у Маргулиса на НТВ [31.03] (2018) HDTV 1080i 4.55 GB ↑ 185 ↓ 58

Отзывы
Зарегистрируйтесь чтобы добавить комментарий.
Обратная связь
Copyleft ©