↑↓Torrent.by
Поиск
Логин: Регистрация
Пароль: Восстановить пароль
Загрузка...

Бэтмен-ниндзя / Batman Ninja (2018) WEB-DLRip 720p | Flarrow Films

Скачать betmen-nindzya-batman-ninja-2018-web-dlrip-720p-flarrow-films.torrent
U Магнитная ссылка Размер: 3.22 GB Раздают: 58 Качают: 26 Добавлен: 2018-04-30 20:06:14
Бэтмен-ниндзя / Batman Ninja (2018) WEB-DLRip 720p | Flarrow Films

Название: Бэтмен-ниндзя
Оригинальное название: Batman Ninja
Год выхода: 2018
Жанр: аниме, мультфильм, боевик, фантастика, фэнтези
Режиссер: Дзюнпэй Мидзусаки
В ролях: Коити Ямадэра, Ватару Такаги, Риэ Кугимия, Аи Какума, Хотю Оцука, Такэхито Коясу, Тосиюки Морикава, Кэнта Миякэ, Юити Нагасима, Кэнго Каваниси

О фильме:
Попав в поле действия машины времени, изобретенной Гориллой Гроддом, Бэтмен переносится в средневековую Японию. Там оказывается, что уже неплохо ояпонившиеся злодеи Готэма возглавляют отдельные княжества, и достигший определенного влияния Джокер наконец-то дождался прибытия своего главного врага. Но не все хотят смерти Брюса Уэйна — Женщина-кошка и верный слуга Альфред тоже с нетерпением ждали появления Бэтмена.

Страна: Япония, США
Продолжительность: 01:25:14
Перевод: Любительский (многоголосый, закадровый) | Flarrow Films

Файл
Формат: MKV
Кодек: MPEG-4 AVC
Качество: WEB-DLRip 720p
Видео: 3 994 Кбит/с, 1280x720, ~ 23.976 FPS
Звук: PCM (A_PCM/INT/LIT), 2 ch, 1 411.2 Кбит/с, 44.1 kHz
Субтитры: отсутствуют

Релиз от: Flarrow Films
Роли озвучивали: Глеб Петров, Dreamy Sleep, hAl, Lunar Arrow, Ron, Molli_bolli и Cpt Drusha.


[+] MediaInfo

General
Unique ID : 194245686186875879586262983047973460141 (0x92225BBD73532D379E88003441B058AD)
Complete name : D:DownloadsMoviesBatman.Ninja.Flarrow.Films.[free-tor].mkv
Format : Matroska
Format version : Version 4 / Version 2
File size : 3.22 GiB
Duration : 1 h 25 min
Overall bit rate : 5 406 kb/s
Movie name : Batman.Ninja.2018.720p.WEB-DL.DD5.1.H264-FGT
Encoded date : UTC 2018-04-30 13:11:58
Writing application : mkvmerge v8.3.0 ('Over the Horizon') 64bit
Writing library : libebml v1.3.1 + libmatroska v1.4.2
Video
ID : 1
Format : AVC
Format/Info : Advanced Video Codec
Format profile : High@L3.1
Format settings : 2 Ref Frames
Format settings, CABAC : No
Format settings, ReFrames : 2 frames
Codec ID : V_MPEG4/ISO/AVC
Duration : 1 h 25 min
Bit rate : 3 994 kb/s
Width : 1 280 pixels
Height : 720 pixels
Display aspect ratio : 16:9
Frame rate mode : Constant
Frame rate : 23.976 (24000/1001) FPS
Color space : YUV
Chroma subsampling : 4:2:0
Bit depth : 8 bits
Scan type : Progressive
Bits/(Pixel*Frame) : 0.181
Stream size : 2.38 GiB (74%)
Title : Batman.Ninja.2018.720p.WEB-DL.DD5.1.H264-FGT
Language : English
Default : Yes
Forced : No
Color range : Limited
Color primaries : BT.709
Transfer characteristics : BT.709
Matrix coefficients : BT.709
Audio
ID : 2
Format : PCM
Format settings : Little / Signed
Codec ID : A_PCM/INT/LIT
Duration : 1 h 25 min
Bit rate mode : Constant
Bit rate : 1 411.2 kb/s
Channel(s) : 2 channels
Sampling rate : 44.1 kHz
Frame rate : 5.000 FPS (8820 SPF)
Bit depth : 16 bits
Stream size : 860 MiB (26%)
Default : Yes
Forced : No



Скриншоты:
[+] Всего файлов в раздаче - 1:
Batman.Ninja.Flarrow.Films.[free-tor].mkv3.22 GB

Текущая раздача:
ДатаКомментарии    РазмерПиры
2018-04-30 U Бэтмен-ниндзя / Batman Ninja (2018) WEB-DLRip 720p | Flarrow Films 3.22 GB ↑ 58 ↓ 26

Показать еще раздачи по запросу бэтмен:
2018-04-26 U Бэтмен-ниндзя / Batman Ninja (2018) BDRip 1080p | L1 6.76 GB ↑ 93 ↓ 48
2018-04-26 U Бэтмен-ниндзя / Batman Ninja (2018) WEB-DL 720p | L1 2.84 GB ↑ 133 ↓ 61
2018-04-14 U Бэтмен: Готэм в газовом свете / Batman: Gotham by Gaslight (2018) HDRip | Jaskier 1.37 GB ↑ 101 ↓ 17
2018-02-10 U Бэтмен: Готэм в газовом свете / Batman: Gotham by Gaslight (2018) WEBRip от Portablius | Flarrow Films 697.62 MB ↑ 100 ↓ 24
2018-02-05 U Бэтмен: Готэм в газовом свете / Batman: Gotham by Gaslight (2018) BDRip 720p от potroks | L 2.06 GB ↑ 123 ↓ 47
2018-02-05 U Бэтмен: Готэм в газовом свете / Batman: Gotham by Gaslight (2018) WEBRip 720p | Flarrow Films 2.39 GB ↑ 382 ↓ 145
2018-01-26 U Бэтмен: Готэм в газовом свете / Batman: Gotham by Gaslight (2018) WEBRip 720p | ZM-SHOW 2.40 GB ↑ 183 ↓ 78

Отзывы
Зарегистрируйтесь чтобы добавить комментарий.
Обратная связь
Copyleft ©