↑↓Torrent.by
Поиск
Логин: Регистрация
Пароль: Восстановить пароль
Загрузка...

Секретная атака Гитлера на Америку / Hitler's Secret Attack on America (2012) HDTV 1080i | P1

Скачать sekretnaya-ataka-gitlera-na-ameriku-hitler-s-secret-attack-on-america-2012-hdtv-1080i-p1.torrent
U Магнитная ссылка Размер: 3.85 GB Раздают: 43 Качают: 30 Добавлен: 2018-04-30 20:07:00
Секретная атака Гитлера на Америку / Hitler's Secret Attack on America (2012) HDTV 1080i | P1

Год выпуска: 2012
Жанр:  Документальный
Режиссер: Девон Чиввис / Devon Chivvis

Описание:
7 декабря 1941 года. Японцы напали на Перл-Харбор. Спустя менее чем 2 недели Гитлер направляет свои секретные войска - волчьи стаи подводных лодок - взрывать всё, что двигалось на водной поверхности моря и океана. Они напали на Восточное побережье США, потопив сотни судов, убив тысячи людей. Подробности этой смертоносной атаки до сих пор скрываются правительством США. В этом фильме уникальный взгляд на тактику фашистов в операции «Барабанный бой» - одной из самых разрушительных и малоизвестных атак на США. Сейчас впервые, за все время новой истории, команда отважных ученых отправляется на поиски затонувших кораблей. Они используют новейшие технологии для достижения своей цели. Они ищут то, что никто не видел с 42-го года, чтобы пролить свет на историю фашистской атаки, которая могла повернуть вспять ход войны для США.

Страна: США
Студия: Wild Life Productions
Продолжительность: 00:44:58
Перевод: профессиональный (одноголосый закадровый)
Доп. инфо о переводе: АРК-ТВ, текст читал Денис Некрасов
Русские субтитры: нет

Тип релиза: HDTV 1080i
Контейнер: TS
Видео: 1920x1080 at 25.000 fps, MPEG-4 AVC, ~11.5 Mbps avg
Аудио: Русский: 48 kHz, AC3, 2/0 (L,R) ch, ~192.00 kbps avg
Формат субтитров: hardsub (неотключаемые) - на переговоры под водой или речь не носителей англ языка
[+] M/I
Общее
Идентификатор                            : 1 (0x1)
Полное имя                               : Hitlers.Secret.Attack.on.America.(2012).1080i.HDTV.Rus-BLUEBIRD.ts
Формат                                   : MPEG-TS
Размер файла                             : 3,85 Гбайт
Продолжительность                        : 44 м. 58 с.
Режим общего битрейта                    : Переменный
Общий поток                              : 12,3 Мбит/сек

Видео
Идентификатор                            : 4113 (0x1011)
Идентификатор меню                       : 1 (0x1)
Формат                                   : AVC
Формат/Информация                        : Advanced Video Codec
Профиль формата                          : High@L4.1
Настройки формата                        : CABAC / 4 Ref Frames
Параметр CABAC формата                   : Да
Параметр RefFrames формата               : 4 кадра
Идентификатор кодека                     : 27
Продолжительность                        : 44 м. 58 с.
Вид битрейта                             : Переменный
Битрейт                                  : 11,5 Мбит/сек
Максимальный битрейт                     : 26,1 Мбит/сек
Ширина                                   : 1920 пикселей
Высота                                   : 1080 пикселей
Соотношение сторон                       : 16:9
Частота кадров                           : 25,000 кадров/сек
Стандарт вещания                         : Component
Цветовое пространство                    : YUV
Субдискретизация насыщенности            : 4:2:0
Битовая глубина                          : 8 бит
Тип развёртки                            : MBAFF
Метод сохранения типа развёртки          : Чередующиеся поля
Порядок развёртки                        : Верхнее поле первое
Бит/(Пиксели*Кадры)                      : 0.221
Размер потока                            : 3,60 Гбайт (93%)
Цветовой диапазон                        : Limited
Основные цвета                           : BT.709
Характеристики трансфера                 : BT.709
Коэффициенты матрицы                     : BT.709

Аудио
Идентификатор                            : 4352 (0x1100)
Идентификатор меню                       : 1 (0x1)
Формат                                   : AC-3
Формат/Информация                        : Audio Coding 3
Идентификатор кодека                     : 129
Продолжительность                        : 44 м. 58 с.
Вид битрейта                             : Постоянный
Битрейт                                  : 192 Кбит/сек
Каналы                                   : 2 канала
Расположение каналов                     : Front: L R
Частота                                  : 48,0 КГц
Частота кадров                           : 31,250 кадров/сек (1536 SPF)
Битовая глубина                          : 16 бит
Метод сжатия                             : С потерями
Размер потока                            : 61,8 Мбайт (2%)
Язык                                     : Russian
ServiceKind                      : Complete Main



Скриншоты:
[+] Всего файлов в раздаче - 1:
Hitlers.Secret.Attack.on.America.(2012).1080i.HDTV.Rus-BLUEBIRD.ts3.85 GB

Текущая раздача:
ДатаКомментарии    РазмерПиры
2018-04-30 U Секретная атака Гитлера на Америку / Hitler's Secret Attack on America (2012) HDTV 1080i | P1 3.85 GB ↑ 43 ↓ 30

Показать еще раздачи по запросу секретная:
2018-01-13 U History Channel: История наркотиков. Секретная война с наркотиками / Secret War on Drugs [04 из 04] (2017) HDTVRip 720p 6.95 GB ↑ 35 ↓ 18
2017-11-30 U Гребенников Вадим - Криптология и секретная связь. Сделано в СССР (2017) FB2 3.02 MB ↑ 77 ↓ 6
2017-09-02 U Kingsman: Секретная служба / Kingsman: The Secret Service (2014) BDRip-HEVC 1080p | D 3.25 GB ↑ 264 ↓ 56
2017-08-30 U Kingsman: Секретная служба / Kingsman: The Secret Service (2014) BDRip от HQ-ViDEO | Лицензия 2.18 GB ↑ 148 ↓ 51
2017-08-28 U Секретная папка [02х01-02] (2017) WEBRip от Files-х 985.57 MB ↑ 81 ↓ 46
2016-07-26 U Секретная экспедиция 9. У истоков процветания. Колекционное издание (2016) PC 750.71 MB ↑ 286 ↓ 28
2016-04-05 U Каждая секретная вещь / Every Secret Thing (2014) WEB-DLRip от KinoRay & Lord32x Studio | L1 1.47 GB ↑ 87 ↓ 43

Отзывы
Зарегистрируйтесь чтобы добавить комментарий.
Обратная связь
Copyleft ©