↑↓Torrent.by
Поиск
Логин: Регистрация
Пароль: Восстановить пароль
Загрузка...

Кавказский пленник (1996) WEB-DLRip 720p от KORSAR

Скачать kavkazskiy-plennik-1996-web-dlrip-720p-ot-korsar.torrent
U Магнитная ссылка Размер: 5.00 GB Раздают: 72 Качают: 4 Добавлен: 2018-05-01 05:47:04
Кавказский пленник (1996) WEB-DLRip 720p от KORSAR

Название: Кавказский пленник
Год выхода: 1996
Жанр: Драма, военный
Режиссер: Сергей Бодров
В ролях: Олег Меньшиков, Сергей Бодров мл., Джемал Сихарулидзе, Сусанна Мехралиева, Александр Буреев, Валентина Федотова, Алексей Жарков, Т. Кибыев, Валерий Кострин, Павел Лебешев

О фильме: На Кавказе — война. Двух раненых русских солдат забирает житель отдаленного горного аула Абдул-Марат. Сын Абдул-Марата находится в плену у русских, и старик хочет договориться с комендантом лагеря об обмене пленными.

Страна: Россия, Казахстан
Студия: студия "Караван"
Продолжительность: 01:39:16

Файл
Кодек: х264
Качество: WEB-DLRip 720p
Видео: MPEG-4 AVC, 1280x680, 23.976 fps, 6876 Кбит/с
Аудио: AC3, 2 ch, 192 Кбит/с
Субтитры: Русские
Навигация по главам: Есть

Релиз:


[+] Инфо файл

x264 [info]: frame I:849   Avg QP:18.25  size:181134
x264 [info]: frame P:47814 Avg QP:19.48  size: 73162
x264 [info]: frame B:94146 Avg QP:21.75  size: 16708

Общее
Уникальный идентификатор         : 251422647902671979745711791281734737696 (0xBD263D99E18C6832862D5290F4E8DF20)
Полное имя                       : E:Кавказский пленник_1996-WEB-DLRip 720p_KORSAR.mkv
Формат                           : Matroska
Размер файла                     : 5,00 Гбайт
Продолжительность                : 1 ч. 39 м.
Общий поток                      : 7212 Кбит/сек
Название фильма                  : Кавказский пленник_1996-WEB-DLRip 720p_KORSAR
Дата кодирования                 : UTC 2017-09-22 06:56:54
Программа кодирования            : mkvmerge v5.8.0 ('No Sleep / Pillow') built on Sep  2 2012 15:37:04
Библиотека кодирования           : libebml v1.2.3 + libmatroska v1.3.0

Видео
Идентификатор                    : 1
Формат                           : AVC
Формат/Информация                : Advanced Video Codec
Профиль формата                  : High@L4.1
Параметр CABAC формата           : Да
Параметр ReFrames формата        : 9 кадры
Идентификатор кодека             : V_MPEG4/ISO/AVC
Продолжительность                : 1 ч. 39 м.
Битрейт                          : 6876 Кбит/сек
Ширина                           : 1280 пикс.
Высота                           : 680 пикс.
Соотношение сторон               : 1,882
Частота кадров                   : 23,976 кадр/сек
Цветовое пространство            : YUV
Подвыборка цветности             : 4:2:0
Битовая глубина                  : 8 бит
Тип развёртки                    : Прогрессивная
Бит/(Пиксели*Кадры)              : 0.329
Размер потока                    : 4,77 Гбайт (95%)
Библиотека кодирования           : x264 core 148 r2744kMod b97ae06
Настройки программы              : cabac=1 / ref=9 / deblock=1:-2:-1 / analyse=0x3:0x113 / me=umh / subme=10 / psy=1 / fade_compensate=0.00 / psy_rd=0.93:0.10 / mixed_ref=1 / me_range=48 / chroma_me=1 / trellis=2 / 8x8dct=1 / cqm=0 / deadzone=21,11 / fast_pskip=1 / chroma_qp_offset=-3 / threads=12 / lookahead_threads=2 / sliced_threads=0 / nr=0 / decimate=1 / interlaced=0 / bluray_compat=0 / constrained_intra=0 / bframes=9 / b_pyramid=2 / b_adapt=2 / b_bias=0 / direct=1 / weightb=1 / open_gop=0 / weightp=2 / keyint=240 / keyint_min=23 / scenecut=40 / intra_refresh=0 / rc_lookahead=40 / rc=crf / mbtree=0 / crf=18.0000 / qcomp=0.63 / qpmin=0 / qpmax=39 / qpstep=4 / vbv_maxrate=50000 / vbv_bufsize=62500 / crf_max=0.0 / nal_hrd=none / filler=0 / ip_ratio=1.40 / pb_ratio=1.30 / aq=2:0.80
Язык                             : English
Основные цвета                   : BT.709-5, BT.1361, IEC 61966-2-4, SMPTE RP177
Характеристики трансфера         : BT.709-5, BT.1361
Коэффициенты матрицы             : BT.709-5, BT.1361, IEC 61966-2-4 709, SMPTE RP177

Аудио
Идентификатор                    : 2
Формат                           : AC-3
Формат/Информация                : Audio Coding 3
Профиль формата                  : Dolby Digital
Расширение режима                : CM (complete main)
Идентификатор кодека             : A_AC3
Продолжительность                : 1 ч. 39 м.
Вид битрейта                     : Постоянный
Битрейт                          : 192 Кбит/сек
Канал(ы)                         : 2 канала(ов)
Расположение каналов             : Front: L R
Частота                          : 48,0 КГц
Битовая глубина                  : 16 бит
Метод сжатия                     : С потерями
Размер потока                    : 136 Мбайт (3%)
Язык                             : Russian

Текст
Идентификатор                    : 3
Формат                           : UTF-8
Идентификатор кодека             : S_TEXT/UTF8
Идентификатор кодека/Информация  : UTF-8 Plain Text
Язык                             : Russian

Меню
00:00:00.000                     : en:Chapter 1
00:04:12.767                     : en:Chapter 2
00:09:18.201                     : en:Chapter 3
00:14:54.334                     : en:Chapter 4
00:21:10.068                     : en:Chapter 5
00:24:58.568                     : en:Chapter 6
00:34:15.469                     : en:Chapter 7
00:35:57.070                     : en:Chapter 8
00:40:35.704                     : en:Chapter 9
00:45:32.438                     : en:Chapter 10
00:52:04.972                     : en:Chapter 11
00:58:36.206                     : en:Chapter 12
01:02:20.840                     : en:Chapter 13
01:07:04.107                     : en:Chapter 14
01:10:56.741                     : en:Chapter 15
01:15:41.475                     : en:Chapter 16
01:23:21.842                     : en:Chapter 17
01:27:31.509                     : en:Chapter 18
01:31:22.377                     : en:Chapter 19
01:36:15.477                     : en:Chapter 20



Скриншоты:
[+] Всего файлов в раздаче - 1:
Кавказский пленник_1996-WEB-DLRip 720p.mkv5.00 GB

Отзывы
Зарегистрируйтесь чтобы добавить комментарий.
Обратная связь
Copyleft ©