↑↓Torrent.by
Поиск
Логин: Регистрация
Пароль: Восстановить пароль
Загрузка...

История игрушек и ужасов! / Игрушечная история террора / Toy Story of Terror (2013) BDRip 720p от Leonardo | D, L2, L1

Скачать istoriya-igrushek-i-uzhasov-igrushechnaya-terrora-toy-story-of-terror-2013-bdrip-720p-ot-leonardo-d-l2-l1.torrent
U Магнитная ссылка Размер: 816.46 MB Раздают: 84 Качают: 20 Добавлен: 2018-05-02 19:16:09
История игрушек и ужасов! / Игрушечная история террора / Toy Story of Terror (2013) BDRip 720p от Leonardo | D, L2, L1

История игрушек и ужасов! / Игрушечная история террора /
Toy Story of Terror


Страна: США
Год выпуска: 2013
Жанр:  мультфильм, короткометражка, фэнтези, комедия, приключения, семейный
Продолжительность: 00:21:40
Перевод 1: Профессиональный (полное дублирование) Невафильм
Перевод 2: Любительский (многоголосый закадровый) SkyeFilmTV
Перевод 3: Любительский (одноголосый закадровый) Вадим Белов
Перевод 4: Любительский (одноголосый закадровый) Андрей Жариков
Оригинальная аудиодорожка: нет

Режиссер: Энгус МакЛэйн

Актеры: Том Хэнкс, Тим Аллен, Джоан Кьюсак, Карл Уэзерс, Стивен Тоболовски, Тимоти Далтон, Уоллес Шоун, Дон Риклз, Кристен Шаал, Кейт МакКиннон

Описание фильма: Вуди, Джесси, Баз, Рекс и другие знакомые и незнакомые персонажи проведут ночь в мотеле. Им придется столкнуться с настоящим чудовищем и другими опасностями в ожидании рассвета.

Файл
Качество видео: BDRip 720p Исходник: Blu-ray Disc
Формат: MKV Видео кодек: MPEG-4 AVC Аудио кодек: AC3
Видео: 1280x720 (16:9) at 23.976 fps, AVC at 3087 kbps avg, 0.140 bit/pixel
Аудио 1: 48 kHz, AC3 Dolby Digital, 3/2 (L,C,R,l,r) + LFE ch, 448.00 kbps avg - Невафильм
Аудио 2: 48 kHz, AC3 Dolby Digital, 3/2 (L,C,R,l,r) + LFE ch, 640.00 kbps avg - SkyeFilmTV
Аудио 3: 48 kHz, AC3 Dolby Digital, 3/2 (L,C,R,l,r) + LFE ch, 640.00 kbps avg - В. Белов
Аудио 4: 48 kHz, AC3 Dolby Digital, 3/2 (L,C,R,l,r) + LFE ch, 448.00 kbps avg - А. Жариков
Субтитры: русские (full), английские (full)
Навигация по главам: Есть

Автор рипа: Leonardo

Релиз:


[+] MI
Полное имя                               : История игрушек и ужасов! 2013.720p.BluRay.x264-LEONARDO.mkv
Формат                                   : Matroska
Версия формата                           : Version 4 / Version 2
Размер файла                             : 816 Мбайт
Продолжительность                        : 21 м. 40 с.
Общий поток                              : 5266 Кбит/сек
Дата кодирования                         : UTC 2018-05-02 07:24:49
Программа кодирования                    : mkvmerge v8.3.0 ('Over the Horizon') 64bit
Библиотека кодирования                   : libebml v1.3.1 + libmatroska v1.4.2

Видео
Идентификатор                            : 1
Формат                                   : AVC
Формат/Информация                        : Advanced Video Codec
Профиль формата                          : High@L4.1
Параметр CABAC формата                   : Да
Параметр ReFrames формата                : 8 кадров
Идентификатор кодека                     : V_MPEG4/ISO/AVC
Продолжительность                        : 21 м. 40 с.
Битрейт                                  : 3087 Кбит/сек
Ширина                                   : 1280 пикселей
Высота                                   : 720 пикселей
Соотношение сторон                       : 16:9
Режим частоты кадров                     : Постоянный
Частота кадров                           : 23,976 (24000/1001) кадра/сек
Цветовое пространство                    : YUV
Субдискретизация насыщенности            : 4:2:0
Битовая глубина                          : 8 бит
Тип развёртки                            : Прогрессивная
Бит/(Пиксели*Кадры)                      : 0.140
Размер потока                            : 479 Мбайт (59%)
Библиотека кодирования                   : x264 core 125 r2208 d9d2288
Настройки программы                      : cabac=1 / ref=8 / deblock=1:-3:-3 / analyse=0x3:0x133 / me=umh / subme=11 / psy=1 / psy_rd=1.00:0.00 / mixed_ref=1 / me_range=32 / chroma_me=1 / trellis=2 / 8x8dct=1 / cqm=0 / deadzone=21,11 / fast_pskip=0 / chroma_qp_offset=-2 / threads=12 / lookahead_threads=2 / sliced_threads=0 / nr=0 / decimate=1 / interlaced=0 / bluray_compat=0 / constrained_intra=0 / bframes=8 / b_pyramid=2 / b_adapt=2 / b_bias=0 / direct=1 / weightb=1 / open_gop=0 / weightp=2 / keyint=250 / keyint_min=23 / scenecut=40 / intra_refresh=0 / rc=crf / mbtree=0 / crf=17.0 / qcomp=0.60 / qpmin=0 / qpmax=69 / qpstep=4 / ip_ratio=1.40 / pb_ratio=1.30 / aq=1:1.00
Язык                                     : English
Default                                  : Да
Forced                                   : Нет

Аудио #1
Идентификатор                            : 2
Формат                                   : AC-3
Формат/Информация                        : Audio Coding 3
Расширение режима                        : CM (complete main)
Параметр Endianness формата              : Big
Идентификатор кодека                     : A_AC3
Продолжительность                        : 21 м. 40 с.
Вид битрейта                             : Постоянный
Битрейт                                  : 448 Кбит/сек
Каналы                                   : 6 каналов
Расположение каналов                     : Front: L C R, Side: L R, LFE
Частота                                  : 48,0 КГц
Частота кадров                           : 31,250 кадров/сек (1536 spf)
Метод сжатия                             : С потерями
Размер потока                            : 69,5 Мбайт (9%)
Заголовок                                : DUB
Язык                                     : Russian
Default                                  : Да
Forced                                   : Нет

Аудио #2
Идентификатор                            : 3
Формат                                   : AC-3
Формат/Информация                        : Audio Coding 3
Расширение режима                        : CM (complete main)
Параметр Endianness формата              : Big
Идентификатор кодека                     : A_AC3
Продолжительность                        : 21 м. 40 с.
Вид битрейта                             : Постоянный
Битрейт                                  : 640 Кбит/сек
Каналы                                   : 6 каналов
Расположение каналов                     : Front: L C R, Side: L R, LFE
Частота                                  : 48,0 КГц
Частота кадров                           : 31,250 кадров/сек (1536 spf)
Метод сжатия                             : С потерями
Размер потока                            : 99,2 Мбайт (12%)
Заголовок                                : MVO [SkyeFilmTV]
Язык                                     : Russian
Default                                  : Нет
Forced                                   : Нет

Аудио #3
Идентификатор                            : 4
Формат                                   : AC-3
Формат/Информация                        : Audio Coding 3
Расширение режима                        : CM (complete main)
Параметр Endianness формата              : Big
Идентификатор кодека                     : A_AC3
Продолжительность                        : 21 м. 40 с.
Вид битрейта                             : Постоянный
Битрейт                                  : 640 Кбит/сек
Каналы                                   : 6 каналов
Расположение каналов                     : Front: L C R, Side: L R, LFE
Частота                                  : 48,0 КГц
Частота кадров                           : 31,250 кадров/сек (1536 spf)
Метод сжатия                             : С потерями
Размер потока                            : 99,2 Мбайт (12%)
Заголовок                                : VO [V. Belov]
Язык                                     : Russian
Default                                  : Нет
Forced                                   : Нет

Аудио #4
Идентификатор                            : 5
Формат                                   : AC-3
Формат/Информация                        : Audio Coding 3
Расширение режима                        : CM (complete main)
Параметр Endianness формата              : Big
Идентификатор кодека                     : A_AC3
Продолжительность                        : 21 м. 40 с.
Вид битрейта                             : Постоянный
Битрейт                                  : 448 Кбит/сек
Каналы                                   : 6 каналов
Расположение каналов                     : Front: L C R, Side: L R, LFE
Частота                                  : 48,0 КГц
Частота кадров                           : 31,250 кадров/сек (1536 spf)
Метод сжатия                             : С потерями
Размер потока                            : 69,5 Мбайт (9%)
Заголовок                                : VO [A. Jarikov]
Язык                                     : Russian
Default                                  : Нет
Forced                                   : Нет

Текст #1
Идентификатор                            : 6
Формат                                   : UTF-8
Идентификатор кодека                     : S_TEXT/UTF8
Идентификатор кодека/Информация          : UTF-8 Plain Text
Продолжительность                        : 21 м. 30 с.
Битрейт                                  : 138 бит/сек
Count of elements                        : 371
Размер потока                            : 21,8 Кбайт (0%)
Заголовок                                : Rus Sub - CasStudioTV
Язык                                     : Russian
Default                                  : Нет
Forced                                   : Нет

Текст #2
Идентификатор                            : 7
Формат                                   : UTF-8
Идентификатор кодека                     : S_TEXT/UTF8
Идентификатор кодека/Информация          : UTF-8 Plain Text
Продолжительность                        : 21 м. 10 с.
Битрейт                                  : 77 бит/сек
Count of elements                        : 392
Размер потока                            : 12,0 Кбайт (0%)
Заголовок                                : Eng Sub - full
Язык                                     : English
Default                                  : Нет
Forced                                   : Нет

Текст #3
Идентификатор                            : 8
Формат                                   : UTF-8
Идентификатор кодека                     : S_TEXT/UTF8
Идентификатор кодека/Информация          : UTF-8 Plain Text
Продолжительность                        : 21 м. 27 с.
Битрейт                                  : 92 бит/сек
Count of elements                        : 496
Размер потока                            : 14,5 Кбайт (0%)
Заголовок                                : Eng Sub - SDH
Язык                                     : English
Default                                  : Нет
Forced                                   : Нет

Меню
00:00:00.000                             : en:00:00:00.000
00:02:21.683                             : en:00:02:21.683
00:03:22.744                             : en:00:03:22.744
00:05:37.254                             : en:00:05:37.254
00:07:16.770                             : en:00:07:16.770
00:09:48.004                             : en:00:09:48.004
00:12:18.363                             : en:00:12:18.363
00:15:31.931                             : en:00:15:31.931
00:17:53.531                             : en:00:17:53.531
00:19:54.777                             : en:00:19:54.777



Скриншоты:
[+] Всего файлов в раздаче - 1:
История игрушек и ужасов! 2013.720p.BluRay.x264-LEONARDO.mkv816.46 MB

Текущая раздача:
ДатаКомментарии    РазмерПиры
2018-05-02 U История игрушек и ужасов! / Игрушечная история террора / Toy Story of Terror (2013) BDRip 720p от Leonardo | D, L2, L1 816.46 MB ↑ 84 ↓ 20

Показать еще раздачи по запросу история:
2018-05-23 U Бернар Миньер - Гребаная история (2018) FB2 2.19 MB ↑ 59 ↓ 3
2018-05-22 U Серия книг - «Фантастическая История» [130 книг] (2010-2018) FB2 185.65 MB ↑ 103 ↓ 18
2018-05-19 U История призрака / A Ghost Story (2017) BDRip-AVC от OlLanDGroup | Лицензия 1.92 GB ↑ 68 ↓ 11
2018-05-19 U История призрака / A Ghost Story (2017) BDRip от MegaPeer | Лицензия 1.46 GB ↑ 43 ↓ 16
2018-05-19 U История призрака / A Ghost Story (2017) BDRip 720p | Лицензия 5.22 GB ↑ 68 ↓ 28
2018-05-18 U История призрака / A Ghost Story (2017) BDRip 1080p | Лицензия 9.71 GB ↑ 97 ↓ 78
2018-05-18 U История призрака / A Ghost Story (2017) BDRip от ExKinoRay | Лицензия 1.46 GB ↑ 117 ↓ 45

Отзывы
Зарегистрируйтесь чтобы добавить комментарий.
Обратная связь
Copyleft ©