↑↓Torrent.by
Поиск
Логин: Регистрация
Пароль: Восстановить пароль
Загрузка...

Титан / The Titan (2018) WEB-DL 1080p | NewStudio

Скачать titan-the-2018-web-dl-1080p-newstudio.torrent
U Магнитная ссылка Размер: 3.50 GB Раздают: 312 Качают: 115 Добавлен: 2018-05-03 09:04:47
Титан / The Titan (2018) WEB-DL 1080p | NewStudio

Название: Титан
Оригинальное название: The Titan
Год выхода: 2018
Жанр: фантастика, триллер
Режиссер: Леннарт Рафф
В ролях: Сэм Уортингтон, Тейлор Шиллинг, Том Уилкинсон, Агнесс Дейн, Натали Эммануэль, Ноа Джуп, Кори Джонсон, Александр Йованович, Диего Бонета, Аарон Хеффернан

О фильме:
Американский военный Рик принимает участие в грандиозной космической программе. Лучшие умы планеты пытаются создать сверхлюдей, которые после гибели Земли обеспечат продолжение существования человечества на планете Титан. Однако эксперимент по скрещиванию генов Homo sapiens с инопланетным существом приводит к совершенно непредсказуемым последствиям.

Страна: Великобритания, Испания, США
Студия: Amel Company, Motion Picture Capital, Nostromo Pictures
Продолжительность: 01:37:19
Перевод: Профессиональный (многоголосый, закадровый) NewStudio

Файл
Формат: MKV
Качество: WEB-DL 1080p
Видео: MPEG-4 AVC,  4270 kb/s, 1920x800
Аудио: Russian: / English: AC3, 384 kb/s (6 ch)
Субтитры: Русские (на надписи), английские (full, SDH)

***Примечание: Без рекламы.


[+] MI

Общее
Уникальный идентификатор                 : 239464634980310924871393358443669571522 (0xB427360B80F8C4E2972D19F5450F47C2)
Полное имя                               : D:ЗаготовкиThe.Titan.2018.MVO.1080p.AMZN.WEB-DL.mkv
Формат                                   : Matroska
Версия формата                           : Version 2
Размер файла                             : 3,50 Гбайт
Продолжительность                        : 1 ч. 37 м.
Режим общего битрейта                    : Переменный
Общий поток                              : 5144 Кбит/сек
Дата кодирования                         : UTC 2018-05-03 01:45:03
Программа кодирования                    : mkvmerge v7.8.0 ('River Man') 32bit built on Apr  3 2015 12:11:22
Библиотека кодирования                   : libebml v1.3.1 + libmatroska v1.4.2

Видео
Идентификатор                            : 1
Формат                                   : AVC
Формат/Информация                        : Advanced Video Codec
Профиль формата                          : High@L4
Настройки формата                        : CABAC / 4 Ref Frames
Параметр CABAC формата                   : Да
Параметр RefFrames формата               : 4 кадра
Идентификатор кодека                     : V_MPEG4/ISO/AVC
Продолжительность                        : 1 ч. 37 м.
Вид битрейта                             : Переменный
Битрейт                                  : 4273 Кбит/сек
Максимальный битрейт                     : 15,0 Мбит/сек
Ширина                                   : 1920 пикселей
Высота                                   : 800 пикселей
Соотношение сторон                       : 2,40:1
Режим частоты кадров                     : Постоянный
Частота кадров                           : 23,976 (24000/1001) кадра/сек
Цветовое пространство                    : YUV
Субдискретизация насыщенности            : 4:2:0
Битовая глубина                          : 8 бит
Тип развёртки                            : Прогрессивная
Бит/(Пиксели*Кадры)                      : 0.116
Размер потока                            : 2,91 Гбайт (83%)
Язык                                     : English
Default                                  : Да
Forced                                   : Нет
Цветовой диапазон                        : Limited
Основные цвета                           : BT.709
Характеристики трансфера                 : BT.709
Коэффициенты матрицы                     : BT.709

Аудио #1
Идентификатор                            : 2
Формат                                   : AC-3
Формат/Информация                        : Audio Coding 3
Идентификатор кодека                     : A_AC3
Продолжительность                        : 1 ч. 37 м.
Вид битрейта                             : Постоянный
Битрейт                                  : 384 Кбит/сек
Каналы                                   : 6 каналов
Расположение каналов                     : Front: L C R, Side: L R, LFE
Частота                                  : 48,0 КГц
Частота кадров                           : 31,250 кадров/сек (1536 SPF)
Битовая глубина                          : 16 бит
Метод сжатия                             : С потерями
Размер потока                            : 267 Мбайт (7%)
Заголовок                                : MVO-NS
Язык                                     : Russian
Default                                  : Да
Forced                                   : Нет

Аудио #2
Идентификатор                            : 3
Формат                                   : AC-3
Формат/Информация                        : Audio Coding 3
Идентификатор кодека                     : A_AC3
Продолжительность                        : 1 ч. 37 м.
Вид битрейта                             : Постоянный
Битрейт                                  : 384 Кбит/сек
Каналы                                   : 6 каналов
Расположение каналов                     : Front: L C R, Side: L R, LFE
Частота                                  : 48,0 КГц
Частота кадров                           : 31,250 кадров/сек (1536 SPF)
Битовая глубина                          : 16 бит
Метод сжатия                             : С потерями
Размер потока                            : 267 Мбайт (7%)
Заголовок                                : Original
Язык                                     : English
Default                                  : Нет
Forced                                   : Нет

Текст #1
Идентификатор                            : 4
Формат                                   : UTF-8
Идентификатор кодека                     : S_TEXT/UTF8
Идентификатор кодека/Информация          : UTF-8 Plain Text
Заголовок                                : FORCED
Язык                                     : Russian
Default                                  : Да
Forced                                   : Да

Текст #2
Идентификатор                            : 5
Формат                                   : UTF-8
Идентификатор кодека                     : S_TEXT/UTF8
Идентификатор кодека/Информация          : UTF-8 Plain Text
Заголовок                                : FULL
Язык                                     : English
Default                                  : Нет
Forced                                   : Нет

Текст #3
Идентификатор                            : 6
Формат                                   : UTF-8
Идентификатор кодека                     : S_TEXT/UTF8
Идентификатор кодека/Информация          : UTF-8 Plain Text
Заголовок                                : SDH
Язык                                     : English
Default                                  : Нет
Forced                                   : Нет




Скриншоты:
[+] Всего файлов в раздаче - 1:
The.Titan.2018.MVO.1080p.AMZN.WEB-DL.mkv3.50 GB

Текущая раздача:
ДатаКомментарии    РазмерПиры
2018-05-03 U Титан / The Titan (2018) WEB-DL 1080p | NewStudio 3.50 GB ↑ 312 ↓ 115

Показать еще раздачи по запросу титан:
2018-06-21 U Титан / The Titan (2018) BDRip 720p | Jaskier 1К4.94 GB ↑ 89 ↓ 85
2018-06-21 U Титан / The Titan (2018) HDRip | Jaskier 1.45 GB ↑ 55 ↓ 37
2018-05-10 U Титан / The Titan (2018) BDRip 720p от HELLYWOOD | iTunes 3.51 GB ↑ 97 ↓ 46
2018-05-07 U Титан / The Titan (2018) HDRip от MegaPeer | iTunes 745.61 MB ↑ 59 ↓ 28
2018-05-06 U Титан / The Titan (2018) HDRip от MegaPeer | iTunes 1.41 GB ↑ 278 ↓ 62
2018-05-06 U Титан / The Titan (2018) BDRip от ExKinoRay | iTunes 1.42 GB ↑ 246 ↓ 61
2018-05-05 U Титан / The Titan (2018) BDRip-AVC от HELLYWOOD | iTunes 1.41 GB ↑ 112 ↓ 71

Отзывы
Зарегистрируйтесь чтобы добавить комментарий.
Обратная связь
Copyleft ©