↑↓Torrent.by
Поиск
Логин: Регистрация
Пароль: Восстановить пароль
Загрузка...

В небо за мечтой (2017) WEB-DL 1080p

Скачать v-nebo-za-mechtoy-2017-web-dl-1080p.torrent
U Магнитная ссылка Размер: 3.32 GB Раздают: 47 Качают: 9 Добавлен: 2018-05-04 07:31:14
В небо за мечтой (2017) WEB-DL 1080p

Название: В небо за мечтой
Год выпуска: 2017
Жанр:  Детский, семейный
Режиссёр: Игорь Перин
В ролях: Александр Новиков (XIV), Мария Авсюкевич, Артём Жигулин, Александр Мохов, Татьяна Рыбинец, Вячеслав Глушков, Игорь Чикин, Мария Павлова (IV), Полина Буданцева, Катя Углова, Артем Исаков, Василисса Фомина, Данила Пятницков, Захар Кабанов, Илья Староверов, Елена Дробышева, Варвара Шулятьева, Илья Соколовский, Азамат Алиев (II), Василий Брыков

О фильме: Всю свою начинающуюся жизнь юный Пашка Новиков бредил самолетами. Зачитывался рассказами о подвигах Валерия Чкалова. Из своей деревни он переезжает в Москву к старшей сестре. Начинается новая жизнь. Не просто складываются отношения с одноклассниками. Но открытый и прямой характер деревенского мечтателя все же помогает ему освоиться. Судьба сводит Пашку с настоящим летчиком-испытателем, который обещает прокатить мальчика на самолете, если тот сможет выполнить одно его условие.

Выпущено: Россия, Ленкино
Продолжительность: 01:29:29
Перевод: Не требуется

Файл
Качество: WEB-DL 1080p
Видео: MPEG-4 AVC, 5109 Кбит/с, 1920x1036
Аудио: AC3, 2 ch, 192 Кбит/с
Субтитры: Нет


[+] MediaInfo
General
Unique ID                                : 196935320108753043604583947178219723007 (0x94285CEE4174EE6CA8AB68372330D8FF)
Complete name                            : V.nebo.za.mechtoy.2017.WEB-DL.(1080p).Getty.mkv
Format                                   : Matroska
Format version                           : Version 4 / Version 2
File size                                : 3.32 GiB
Duration                                 : 1 h 29 min
Overall bit rate                         : 5 303 kb/s
Movie name                               : V.nebo.za.mechtoy.2017.WEB-DL.(1080p).Getty
Encoded date                             : UTC 2018-05-01 11:29:37
Writing application                      : mkvmerge v7.8.0 ('River Man') 32bit built on Mar 27 2015 16:18:02
Writing library                          : libebml v1.3.1 + libmatroska v1.4.2

Video
ID                                       : 1
Format                                   : AVC
Format/Info                              : Advanced Video Codec
Format profile                           : High@L4
Format settings, CABAC                   : Yes
Format settings, RefFrames               : 4 frames
Codec ID                                 : V_MPEG4/ISO/AVC
Duration                                 : 1 h 29 min
Bit rate                                 : 5 109 kb/s
Width                                    : 1 920 pixels
Height                                   : 1 036 pixels
Display aspect ratio                     : 1.85:1
Frame rate mode                          : Constant
Frame rate                               : 25.000 FPS
Color space                              : YUV
Chroma subsampling                       : 4:2:0
Bit depth                                : 8 bits
Scan type                                : Progressive
Bits/(Pixel*Frame)                       : 0.103
Stream size                              : 3.19 GiB (96%)
Default                                  : Yes
Forced                                   : No

Audio
ID                                       : 2
Format                                   : AC-3
Format/Info                              : Audio Coding 3
Format settings, Endianness              : Big
Codec ID                                 : A_AC3
Duration                                 : 1 h 29 min
Bit rate mode                            : Constant
Bit rate                                 : 192 kb/s
Channel(s)                               : 2 channels
Channel positions                        : Front: L R
Sampling rate                            : 48.0 kHz
Frame rate                               : 31.250 FPS (1536 SPF)
Bit depth                                : 16 bits
Compression mode                         : Lossy
Stream size                              : 123 MiB (4%)
Service kind                             : Complete Main
Default                                  : Yes
Forced                                   : No



Скриншоты:
[+] Всего файлов в раздаче - 1:
V.nebo.za.mechtoy.2017.WEB-DL.(1080p).Getty.mkv3.32 GB

Текущая раздача:
ДатаКомментарии    РазмерПиры
2018-05-04 U В небо за мечтой (2017) WEB-DL 1080p 3.32 GB ↑ 47 ↓ 9

Показать еще раздачи по запросу небо:
2018-02-22 U Смородинский Георгий - Семнадцатое обновление 6. Звездное небо Даркана (2018) MP3 364.61 MB ↑ 139 ↓ 20
2018-02-16 U Вечное путешествие 8: Горящее небо / Amaranthine Voyage 8: The Burning Sky CE (2017) PC 776.49 MB ↑ 156 ↓ 15
2018-02-11 U Сенькин Станислав - Картонное небо. Исповедь церковного бунтаря (2018) FB2 851.52 kB ↑ 91 ↓ 9
2017-12-28 U В небо за мечтой (2017) WEB-DLRip-AVC от Files-x 1.37 GB ↑ 145 ↓ 37
2017-12-28 U В небо за мечтой (2017) WEB-DLRip от Files-x 1.37 GB ↑ 93 ↓ 16
2017-12-04 U Михаил Хазин, Сергей Щеглов - Лестница в небо. Диалоги о власти, карьере и мировой элите (2016) PDF, FB2 4.86 MB ↑ 98 ↓ 63
2017-11-17 U Битва за небо. История военной авиации России [01-08] (2017) SATRip 4.30 GB ↑ 56 ↓ 34

Отзывы
Зарегистрируйтесь чтобы добавить комментарий.
Обратная связь
Copyleft ©