↑↓Torrent.by
Поиск
Логин: Регистрация
Пароль: Восстановить пароль
Загрузка...

Простоквашино: Возвращение в Простоквашино. Часть 2 [02] (2018) WEB-DL 1080р

Скачать prostokvashino-vozvraschenie-v-chast-2-02-2018-web-dl-1080r.torrent
U Магнитная ссылка Размер: 242.24 MB Раздают: 859 Качают: 111 Добавлен: 2018-05-04 22:13:35
Простоквашино: Возвращение в Простоквашино. Часть 2 [02] (2018) WEB-DL 1080р

Название: Простоквашино: Возвращение в Простоквашино. Часть 2
Год выхода: 2018
Жанр: Мультфильм, семейный

Режиссер: Михаил Солошенко

Роли озвучивали: Антон Табаков, Юлия Меньшова, Иван Охлобыстин, Гарик Сукачёв, Алексей Онежен

О мультфильме: Казалось, никакие бури внешнего мира не смогут поколебать привычный и размеренный ход деревенской жизни Простоквашино. Время как будто застыло. Все так же каждое утро Матроскин дегустирует свежее молоко, полученное от своей любимицы — коровы Мурки. Все так же Шарик проводит время в окрестных лесах, «фотоохотясь» на редкую дичь. Правда, теперь он научился выкладывать фотографии своей добычи в интернет. И все так же, при каждой возможности, их навещает Дядя Федор. И тогда они весело и дружно проводят время своей мужской компанией. И когда им уже стало казаться, что так будет всегда, внезапно все изменилось с появлением одной маленькой девочки, родной сестры Дяди Фёдора. И имя этой девочки — Вера Павловна.

Производство: Россия / Союзмультфильм
Продолжительность: 00:06:30
Перевод: Не требуется
Субтитры: Отсутствуют

Файл
Формат: MKV
Качество: WEB-DL 1080р

Видео: MPEG-4 AVC, 5018 Кбит/с, 1920x1080
Аудио: 48 kHz, AC3 Dolby Digital, 2/0 (L,R) ch, ~192 kbps


[+] MediaInfo
Общее
Уникальный идентификатор                 : 99717060741103983827988274768469422350 (0x4B04CEACD5D5DC7401F96CD25A85F10E)
Полное имя                               : Возвращение в Простоквашино 2 серия.mkv
Формат                                   : Matroska
Версия формата                           : Version 4 / Version 2
Размер файла                             : 242 Мбайт
Продолжительность                        : 6 м. 30 с.
Общий поток                              : 5209 Кбит/сек
Дата кодирования                         : UTC 2018-05-04 12:32:03
Программа кодирования                    : mkvmerge v21.0.0 ('Tardigrades Will Inherit The Earth') 64-bit
Библиотека кодирования                   : libebml v1.3.5 + libmatroska v1.4.8

Видео
Идентификатор                            : 1
Формат                                   : AVC
Формат/Информация                        : Advanced Video Codec
Профиль формата                          : Main@L5.1
Настройки формата                        : CABAC / 1 Ref Frames
Параметр CABAC формата                   : Да
Параметр RefFrames формата               : 1 кадр
Идентификатор кодека                     : V_MPEG4/ISO/AVC
Продолжительность                        : 6 м. 29 с.
Битрейт                                  : 5018 Кбит/сек
Ширина                                   : 1920 пикселей
Высота                                   : 1080 пикселей
Соотношение сторон                       : 16:9
Режим частоты кадров                     : Постоянный
Частота кадров                           : 25,000 кадров/сек
Цветовое пространство                    : YUV
Субдискретизация насыщенности            : 4:2:0
Битовая глубина                          : 8 бит
Тип развёртки                            : Прогрессивная
Бит/(Пиксели*Кадры)                      : 0.097
Размер потока                            : 233 Мбайт (96%)
Default                                  : Да
Forced                                   : Нет

Аудио
Идентификатор                            : 2
Формат                                   : AC-3
Формат/Информация                        : Audio Coding 3
Идентификатор кодека                     : A_AC3
Продолжительность                        : 6 м. 30 с.
Вид битрейта                             : Постоянный
Битрейт                                  : 192 Кбит/сек
Каналы                                   : 2 канала
Расположение каналов                     : Front: L R
Частота                                  : 48,0 КГц
Частота кадров                           : 31,250 кадров/сек (1536 SPF)
Битовая глубина                          : 16 бит
Метод сжатия                             : С потерями
Размер потока                            : 8,93 Мбайт (4%)
Default                                  : Да
Forced                                   : Нет



Скриншоты:
[+] Всего файлов в раздаче - 1:
Возвращение в Простоквашино 2 серия.mkv242.24 MB

Текущая раздача:
ДатаКомментарии    РазмерПиры
2018-05-04 U Простоквашино: Возвращение в Простоквашино. Часть 2 [02] (2018) WEB-DL 1080р 242.24 MB ↑ 859 ↓ 111

Показать еще раздачи по запросу простоквашино:
2018-11-12 U Простоквашино [01x01-08 из 30] (2018) WEB-DLRip 795.82 MB ↑ 74 ↓ 20
2018-11-10 U Простоквашино [01x01-08 из 30] (2018) WEB-DLRip 1080p 1.53 GB ↑ 103 ↓ 15
2018-10-11 U Простоквашино [01x01-07 из 30] (2018) WEB-DLRip 696.24 MB ↑ 112 ↓ 80
2018-10-10 U Простоквашино [01x01-07 из 30] (2018) WEB-DLRip 720p 878.89 MB ↑ 198 ↓ 50
2018-09-13 U Простоквашино [01x01-06 из 30] (2018) WEB-DLRip-AVC от OlLanDGroup 612.15 MB ↑ 43 ↓ 23
2018-09-11 U Простоквашино [01x01-06 из 30] (2018) WEB-DLRip 596.85 MB ↑ 203 ↓ 38
2018-09-10 U Простоквашино [01x01-06 из 30] (2018) WEB-DLRip 720p 753.21 MB ↑ 180 ↓ 157

Отзывы
Зарегистрируйтесь чтобы добавить комментарий.
Обратная связь
Copyleft ©