↑↓Torrent.by
Поиск
Логин: Регистрация
Пароль: Восстановить пароль
Загрузка...

Титан / The Titan (2018) BDRemux 1080p от ExKinoRay | D, P | iTunes

Скачать titan-the-2018-bdremux-1080p-ot-exkinoray-d-p-itunes.torrent
U Магнитная ссылка Размер: 25.84 GB Раздают: 47 Качают: 31 Добавлен: 2018-05-05 07:10:31
Титан / The Titan (2018) BDRemux 1080p от ExKinoRay | D, P | iTunes

Название: Титан
Оригинальное название: The Titan
Год выхода: 2018
Жанр: Фантастика
Режиссер: Леннарт Рафф
В ролях: Сэм Уортингтон, Тейлор Шиллинг, Том Уилкинсон, Агнесс Дейн, Натали Эммануэль, Кори Джонсон, Александр Йованович, Аарон Хеффернан, Натали Поса, Стивен Кри

О фильме: Американский военный Рик принимает участие в грандиозной космической программе. Лучшие умы планеты пытаются создать сверхлюдей, которые после гибели Земли обеспечат продолжение существования человечества на планете Титан. Однако эксперимент по скрещиванию генов Homo sapiens с инопланетным существом приводит к совершенно непредсказуемым последствиям.

Страна: Великобритания, США, Испания
Студия: 42, Amel Company, The
Продолжительность: 01:37:17
Перевод(ы):
#1: Дублированный | iTunes
#2: Профессиональный многоголосый | NewStudio

Качество: BDRemux 1080p
Видео: MPEG-4 AVC, 1920x1080, 33.4 Mbit/s, 24.000 fps
Звук:
Аудио #01: 48 kHz, AC3, 5.1, 384 Kbps | iTunes | RUS |
Аудио #02: 48 kHz, AC3, 5.1, 384 Kbps | NewStudio | RUS |
Аудио #03: 48 kHz, DTS-HD MA, 5.1, 3840 Kbps | Оригинал |  ENG |
Субтитры: Русские (forced, full), английские

Релиз: Автор релиза:


[+] MI
General
Unique ID                   : 289731486929166028102657543939672550492 (0xD9F84130CCAF1619A8EB4E638DBCAC5C)
Complete name               : C:Video111The.Titan.2018.BDREMUX.1080p.ExKinoRay.mkv
Format                      : Matroska
Format version              : Version 4 / Version 2
File size                   : 25.8 GiB
Duration                    : 1 h 37 min
Overall bit rate mode       : Variable
Overall bit rate            : 38.0 Mb/s
Movie name                  : Titan 2018 from ExKinoRay
Encoded date                : UTC 2018-05-04 18:57:47
Writing application         : mkvmerge v22.0.0 ('At The End Of The World') 64-bit
Writing library             : libebml v1.3.5 + libmatroska v1.4.8

Video
ID                          : 1
Format                      : AVC
Format/Info                 : Advanced Video Codec
Format profile              : High@L4.1
Format settings             : CABAC / 4 Ref Frames
Format settings, CABAC      : Yes
Format settings, ReFrames   : 4 frames
Codec ID                    : V_MPEG4/ISO/AVC
Duration                    : 1 h 37 min
Bit rate mode               : Variable
Bit rate                    : 33.4 Mb/s
Maximum bit rate            : 37.0 Mb/s
Width                       : 1 920 pixels
Height                      : 1 080 pixels
Display aspect ratio        : 16:9
Frame rate mode             : Constant
Frame rate                  : 24.000 FPS
Color space                 : YUV
Chroma subsampling          : 4:2:0
Bit depth                   : 8 bits
Scan type                   : Progressive
Bits/(Pixel*Frame)          : 0.672
Stream size                 : 22.7 GiB (88%)
Language                    : English
Default                     : No
Forced                      : No

Audio #1
ID                          : 2
Format                      : AC-3
Format/Info                 : Audio Coding 3
Codec ID                    : A_AC3
Duration                    : 1 h 37 min
Bit rate mode               : Constant
Bit rate                    : 384 kb/s
Channel(s)                  : 6 channels
Channel positions           : Front: L C R, Side: L R, LFE
Sampling rate               : 48.0 kHz
Frame rate                  : 31.250 FPS (1536 SPF)
Bit depth                   : 16 bits
Compression mode            : Lossy
Stream size                 : 267 MiB (1%)
Title                       : iTunes
Language                    : Russian
Service kind                : Complete Main
Default                     : Yes
Forced                      : Yes

Audio #2
ID                          : 3
Format                      : AC-3
Format/Info                 : Audio Coding 3
Codec ID                    : A_AC3
Duration                    : 1 h 37 min
Bit rate mode               : Constant
Bit rate                    : 384 kb/s
Channel(s)                  : 6 channels
Channel positions           : Front: L C R, Side: L R, LFE
Sampling rate               : 48.0 kHz
Frame rate                  : 31.250 FPS (1536 SPF)
Bit depth                   : 16 bits
Compression mode            : Lossy
Stream size                 : 267 MiB (1%)
Title                       : MVO
Language                    : Russian
Service kind                : Complete Main
Default                     : No
Forced                      : No

Audio #3
ID                          : 4
Format                      : DTS
Format/Info                 : Digital Theater Systems
Format profile              : MA / Core
Codec ID                    : A_DTS
Duration                    : 1 h 37 min
Bit rate mode               : Variable / Constant
Bit rate                    : 3 840 kb/s / 1 509 kb/s
Channel(s)                  : 6 channels
Channel positions           : Front: L C R, Side: L R, LFE
Sampling rate               : 48.0 kHz
Frame rate                  : 93.750 FPS (512 SPF)
Bit depth                   : 24 bits
Compression mode            : Lossless / Lossy
Stream size                 : 2.58 GiB (10%)
Title                       : Original
Language                    : English
Default                     : No
Forced                      : No

Text #1
ID                          : 5
Format                      : UTF-8
Codec ID                    : S_TEXT/UTF8
Codec ID/Info               : UTF-8 Plain Text
Duration                    : 47 min 53 s
Bit rate                    : 0 b/s
Count of elements           : 6
Stream size                 : 299 Bytes (0%)
Title                       : forced
Language                    : Russian
Default                     : Yes
Forced                      : Yes

Text #2
ID                          : 6
Format                      : UTF-8
Codec ID                    : S_TEXT/UTF8
Codec ID/Info               : UTF-8 Plain Text
Duration                    : 1 h 30 min
Bit rate                    : 53 b/s
Count of elements           : 631
Stream size                 : 35.8 KiB (0%)
Title                       : full
Language                    : Russian
Default                     : No
Forced                      : No

Text #3
ID                          : 7
Format                      : UTF-8
Codec ID                    : S_TEXT/UTF8
Codec ID/Info               : UTF-8 Plain Text
Duration                    : 1 h 27 min
Bit rate                    : 30 b/s
Count of elements           : 718
Stream size                 : 19.7 KiB (0%)
Title                       : full
Language                    : English
Default                     : No
Forced                      : No

Text #4
ID                          : 8
Format                      : UTF-8
Codec ID                    : S_TEXT/UTF8
Codec ID/Info               : UTF-8 Plain Text
Duration                    : 1 h 34 min
Bit rate                    : 37 b/s
Count of elements           : 979
Stream size                 : 26.0 KiB (0%)
Title                       : SDH
Language                    : English
Default                     : No
Forced                      : No

Menu
00:00:00.000                : en:00:00:00.000
00:08:09.542                : en:00:08:09.542
00:17:13.875                : en:00:17:13.875
00:26:26.833                : en:00:26:26.833
00:34:24.000                : en:00:34:24.000
00:41:54.750                : en:00:41:54.750
00:49:07.667                : en:00:49:07.667
00:58:29.292                : en:00:58:29.292
01:05:34.083                : en:01:05:34.083
01:13:52.292                : en:01:13:52.292
01:23:17.917                : en:01:23:17.917
01:31:54.250                : en:01:31:54.250



Скриншоты:
[+] Всего файлов в раздаче - 1:
The.Titan.2018.BDREMUX.1080p.ExKinoRay.mkv25.84 GB

Текущая раздача:
ДатаКомментарии    РазмерПиры
2018-05-05 U Титан / The Titan (2018) BDRemux 1080p от ExKinoRay | D, P | iTunes 25.84 GB ↑ 47 ↓ 31

Показать еще раздачи по запросу титан:
2018-05-10 U Титан / The Titan (2018) BDRip 720p от HELLYWOOD | iTunes 3.51 GB ↑ 63 ↓ 42
2018-05-07 U Титан / The Titan (2018) HDRip от MegaPeer | iTunes 745.61 MB ↑ 50 ↓ 27
2018-05-06 U Титан / The Titan (2018) HDRip от MegaPeer | iTunes 1.41 GB ↑ 222 ↓ 59
2018-05-06 U Титан / The Titan (2018) BDRip от ExKinoRay | iTunes 1.42 GB ↑ 230 ↓ 58
2018-05-05 U Титан / The Titan (2018) BDRip-AVC от HELLYWOOD | iTunes 1.41 GB ↑ 96 ↓ 71
2018-05-05 U Титан / The Titan (2018) BDRip-AVC от HELLYWOOD | iTunes 2.14 GB ↑ 180 ↓ 134
2018-05-05 U Титан / The Titan (2018) WEB-DLRip от Generalfilm | КПК | iTunes 1К369.51 MB ↑ 34 ↓ 11

Отзывы
Зарегистрируйтесь чтобы добавить комментарий.
Обратная связь
Copyleft ©