↑↓Torrent.by
Поиск
Логин: Регистрация
Пароль: Восстановить пароль
Загрузка...

Я сражаюсь с великанами / I Kill Giants (2017) WEB-DLRip-AVC от OlLanDGroup | iTunes

Скачать ya-srazhayus-s-velikanami-i-kill-giants-2017-web-dlrip-avc-ot-ollandgroup-itunes.torrent
U Магнитная ссылка Размер: 1.70 GB Раздают: 158 Качают: 41 Добавлен: 2018-05-05 07:10:51
Я сражаюсь с великанами / I Kill Giants (2017) WEB-DLRip-AVC от OlLanDGroup | iTunes

Я сражаюсь с великанами / I Kill Giants
«Основано на величайшем комиксе «Я убиваю великанов»

Год выпуска: 2017
Страна: Бельгия, Великобритания, США
Производство: 1492 Pictures, Adonis Production
Жанр:  Фэнтези, триллер, драма

Режиссёр: Андерс Вальтер Хансен
В ролях: Мэдисон Вульф, Зои Салдана, Имоджен Путс, Сидни Вэйд, Рори Джексон, Аллана О`Коннор, Дженнифер Или, Арт Паркинсон, Дон Вичерли, Эйдин Уайлд, Ноэль Кларк, Соня Келли, Сиара О`Каллаган, Аманда Стюарт, Майя Питерс

Перевод: Дублированный | iTunes
Субтитры: Русские, Английские (full, SDH)
Реклама: Отсутствует

Описание: Барбара Торсон — особенная, ее уникальный талант — это возможность видеть мир великанов. И этот мир угрожает людям. Барбаре никто не верит, но она единственная, кто может спасти человечество от исчезновения. Она объявляет великанам войну и готовится к главному сражению в своей жизни.

Качество: WEB-DLRip-AVC
Продолжительность: 01:46:30

Формат: MKV
Видео кодек: MPEG-4 AVC
Аудио кодек: AC3
Видео: 1024x428 (2.40:1), 23,976 fps, x264 ~1 509 kbps avg, 0.144 bit/pixel
Аудио: 48 kHz, AC3 Dolby Digital, 3/2 (L,C,R,l,r) + LFE ch, ~384.00 kbps avg | RUS (iTunes)
Аудио: 48 kHz, AC3 Dolby Digital, 3/2 (L,C,R,l,r) + LFE ch, ~384.00 kbps avg | ENG

Дата премьеры (мир): 9 сентября 2017
Дата премьеры (РФ): 29 марта 2018, «Экспонента»

Релиз: Rip by:


[+] MediaInfo

Общее
Уникальный идентификатор                 : 197509219239346009917807772011499695466 (0x9496E457A88878A3860EF977BBC52D6A)
Полное имя                               : E:OlLanDGroupI.Kill.Giants.2017.WEB-DLRip(AVC).OlLanDGroup.mkv
Формат                                   : Matroska
Версия формата                           : Version 4 / Version 2
Размер файла                             : 1,70 Гбайт
Продолжительность                        : 1 ч. 46 м.
Общий поток                              : 2279 Кбит/сек
Название фильма                          : I.Kill.Giants.2017    #TorpedoUK#
Дата кодирования                         : UTC 2018-05-05 01:03:43
Программа кодирования                    : mkvmerge v8.3.0 ('Over the Horizon') 64bit
Библиотека кодирования                   : libebml v1.3.1 + libmatroska v1.4.2

Видео
Идентификатор                            : 1
Формат                                   : AVC
Формат/Информация                        : Advanced Video Codec
Профиль формата                          : High@L4.1
Параметр CABAC формата                   : Да
Параметр ReFrames формата                : 10 кадров
Идентификатор кодека                     : V_MPEG4/ISO/AVC
Продолжительность                        : 1 ч. 46 м.
Битрейт                                  : 1509 Кбит/сек
Ширина                                   : 1024 пикселя
Высота                                   : 428 пикселей
Соотношение сторон                       : 2,40:1
Режим частоты кадров                     : Постоянный
Частота кадров                           : 23,976 (24000/1001) кадра/сек
Цветовое пространство                    : YUV
Субдискретизация насыщенности            : 4:2:0
Битовая глубина                          : 8 бит
Тип развёртки                            : Прогрессивная
Бит/(Пиксели*Кадры)                      : 0.144
Размер потока                            : 1,12 Гбайт (66%)
Библиотека кодирования                   : x264 core 146 r2538 121396c
Настройки программы                      : cabac=1 / ref=10 / deblock=1:-2:-3 / analyse=0x3:0x133 / me=umh / subme=11 / psy=1 / psy_rd=0.97:0.07 / mixed_ref=1 / me_range=48 / chroma_me=1 / trellis=2 / 8x8dct=1 / cqm=0 / deadzone=21,11 / fast_pskip=1 / chroma_qp_offset=-3 / threads=6 / lookahead_threads=1 / sliced_threads=0 / nr=0 / decimate=1 / interlaced=0 / bluray_compat=0 / constrained_intra=0 / bframes=10 / b_pyramid=2 / b_adapt=2 / b_bias=0 / direct=3 / weightb=1 / open_gop=0 / weightp=2 / keyint=240 / keyint_min=23 / scenecut=40 / intra_refresh=0 / rc_lookahead=40 / rc=2pass / mbtree=0 / bitrate=1509 / ratetol=1.0 / qcomp=0.60 / qpmin=0 / qpmax=69 / qpstep=4 / cplxblur=20.0 / qblur=0.5 / vbv_maxrate=50000 / vbv_bufsize=62500 / nal_hrd=none / filler=0 / ip_ratio=1.40 / pb_ratio=1.30 / aq=1:1.00
Язык                                     : English
Default                                  : Да
Forced                                   : Нет

Аудио #1
Идентификатор                            : 2
Формат                                   : AC-3
Формат/Информация                        : Audio Coding 3
Расширение режима                        : CM (complete main)
Параметр Endianness формата              : Big
Идентификатор кодека                     : A_AC3
Продолжительность                        : 1 ч. 46 м.
Вид битрейта                             : Постоянный
Битрейт                                  : 384 Кбит/сек
Каналы                                   : 6 каналов
Расположение каналов                     : Front: L C R, Side: L R, LFE
Частота                                  : 48,0 КГц
Частота кадров                           : 31,250 кадров/сек (1536 spf)
Битовая глубина                          : 16 бит
Метод сжатия                             : С потерями
Размер потока                            : 293 Мбайт (17%)
Заголовок                                : [DUB] DD 5.1 @ 384 kbps (iTunes)
Язык                                     : Russian
Default                                  : Да
Forced                                   : Нет

Аудио #2
Идентификатор                            : 3
Формат                                   : AC-3
Формат/Информация                        : Audio Coding 3
Расширение режима                        : CM (complete main)
Параметр Endianness формата              : Big
Идентификатор кодека                     : A_AC3
Продолжительность                        : 1 ч. 46 м.
Вид битрейта                             : Постоянный
Битрейт                                  : 384 Кбит/сек
Каналы                                   : 6 каналов
Расположение каналов                     : Front: L C R, Side: L R, LFE
Частота                                  : 48,0 КГц
Частота кадров                           : 31,250 кадров/сек (1536 spf)
Битовая глубина                          : 16 бит
Метод сжатия                             : С потерями
Размер потока                            : 293 Мбайт (17%)
Заголовок                                : [ORIGINAL] DD 5.1 @ 384 kbps (iTunes)
Язык                                     : English
Default                                  : Нет
Forced                                   : Нет

Текст #1
Идентификатор                            : 4
Формат                                   : UTF-8
Идентификатор кодека                     : S_TEXT/UTF8
Идентификатор кодека/Информация          : UTF-8 Plain Text
Продолжительность                        : 1 ч. 33 м.
Битрейт                                  : 66 бит/сек
Count of elements                        : 904
Размер потока                            : 45,5 Кбайт (0%)
Заголовок                                : Full-length
Язык                                     : Russian
Default                                  : Нет
Forced                                   : Нет

Текст #2
Идентификатор                            : 5
Формат                                   : UTF-8
Идентификатор кодека                     : S_TEXT/UTF8
Идентификатор кодека/Информация          : UTF-8 Plain Text
Продолжительность                        : 1 ч. 37 м.
Битрейт                                  : 34 бит/сек
Count of elements                        : 906
Размер потока                            : 24,4 Кбайт (0%)
Заголовок                                : Full-length
Язык                                     : English
Default                                  : Нет
Forced                                   : Нет

Текст #3
Идентификатор                            : 6
Формат                                   : UTF-8
Идентификатор кодека                     : S_TEXT/UTF8
Идентификатор кодека/Информация          : UTF-8 Plain Text
Продолжительность                        : 1 ч. 36 м.
Битрейт                                  : 39 бит/сек
Count of elements                        : 1055
Размер потока                            : 27,9 Кбайт (0%)
Заголовок                                : SDH
Язык                                     : English
Default                                  : Нет
Forced                                   : Нет

Меню
00:00:00.000                             : en:1
00:09:26.232                             : en:2
00:19:25.623                             : en:3
00:30:54.061                             : en:4
00:42:20.956                             : en:5
00:53:39.717                             : en:6
01:04:09.722                             : en:7
01:14:56.951                             : en:8
01:27:10.809                             : en:9
01:38:03.168                             : en:10



Скриншоты:
[+] Всего файлов в раздаче - 1:
I.Kill.Giants.2017.WEB-DLRip(AVC).OlLanDGroup.mkv1.70 GB

Текущая раздача:
ДатаКомментарии    РазмерПиры
2018-05-05 U Я сражаюсь с великанами / I Kill Giants (2017) WEB-DLRip-AVC от OlLanDGroup | iTunes 1.70 GB ↑ 158 ↓ 41

Показать еще раздачи по запросу сражаюсь:
2018-05-21 U Я сражаюсь с великанами / I Kill Giants (2017) BDRip 720p от ExKinoRay | iTunes 3.72 GB ↑ 34 ↓ 20
2018-05-21 U Я сражаюсь с великанами / I Kill Giants (2017) BDRip 1080p от ExKinoRay | iTunes 7.22 GB ↑ 37 ↓ 24
2018-05-20 U Я сражаюсь с великанами / I Kill Giants (2017) BDRemux 1080p от ExKinoRay | iTunes 16.22 GB ↑ 140 ↓ 56
2018-05-20 U Я сражаюсь с великанами / I Kill Giants (2017) BDRip от MegaPeer | iTunes 1.41 GB ↑ 119 ↓ 12
2018-05-17 U Я сражаюсь с великанами / I Kill Giants (2017) BDRip 1080p | iTunes 7.93 GB ↑ 91 ↓ 26
2018-05-08 U Я сражаюсь с великанами / I Kill Giants (2017) WEB-DLRip от MegaPeer | iTunes 1.46 GB ↑ 67 ↓ 25
2018-05-05 U Я сражаюсь с великанами / I Kill Giants (2017) WEB-DLRip от Generalfilm | КПК | iTunes 404.30 MB ↑ 34 ↓ 12

Отзывы
Зарегистрируйтесь чтобы добавить комментарий.
Обратная связь
Copyleft ©