↑↓Torrent.by
Поиск
Логин: Регистрация
Пароль: Восстановить пароль
Загрузка...

Скиф (2018) HDRip-AVC от SuperMin

Скачать skif-2018-hdrip-avc-ot-supermin.torrent
U Магнитная ссылка Размер: 1.87 GB Раздают: 220 Качают: 96 Добавлен: 2018-05-05 11:21:42
Скиф (2018) HDRip-AVC от SuperMin

Название: Скиф  
Год выхода: 2018
Жанр: драма, история, фэнтези, боевик, приключения
Режиссер: Рустам Мосафир
В ролях: Алексей Фаддеев, Виталий Кравченко, Александр Кузнецов, Александр Пацевич, Юрий Цурило, Андрей Пермяков, Василиса Измайлова, Алексей Овсянников, Фёдор Рощин, Рустам Мосафир

О фильме:
Темные века, Великая степь. Таинственные кочевники похищают семью воина Лютобора (Алексей Фаддеев). Богатырь пускается в погоню с хитроумным проводником, скифом Куницей (Александр Кузнецов). Преодолевая искушения языческих жрецов, избегая ловушек, расставленных князьями мира сего, закаляясь в битвах с половцами, герои обретают силу духа и спасают любимых. Средневековье здесь — не формальная рамка. Авторы воссоздают легендарный мир, в котором человек человеку — волк, а единственная твердая валюта — богатырская доблесть и рассеивающая языческие чары дружба. Картина Рустама Мосафира зачаровывает, самоотверженный труд художников и артистов сливается в единую, богато аранжированную изобразительно-поэтическую ткань сказа.

Страна: Россия
Продолжительность: 01:44:34
Перевод: не требуется

Файл
Кодек: H.264
Качество: HDRip-AVC от SuperMin
Видео: 1056х440 (2.40:1), 2174 Kbps, 24.000 fps
Звук: Русский (AC-3, 6ch, 384 kbps)


[+] MI
General
Unique ID                   : 248400212708786398846251457898612059212 (0xBAE0240A79044DA1956E821A9DF4EC4C)
Complete name               : F:Скиф.mkv
Format                      : Matroska
Format version              : Version 4 / Version 2
File size                   : 1.87 GiB
Duration                    : 1 h 44 min
Overall bit rate            : 2 558 kb/s
Movie name                  : Скиф (2018) - #LORDKILL#
Encoded date                : UTC 2018-05-04 20:21:50
Writing application         : mkvmerge v9.5.0 ('Quiet Fire') 64bit
Writing library             : libebml v1.3.4 + libmatroska v1.4.5

Video
ID                          : 1
Format                      : AVC
Format/Info                 : Advanced Video Codec
Format profile              : High@L4.1
Format settings, CABAC      : Yes
Format settings, ReFrames   : 11 frames
Codec ID                    : V_MPEG4/ISO/AVC
Duration                    : 1 h 44 min
Bit rate                    : 2 174 kb/s
Width                       : 1 056 pixels
Height                      : 440 pixels
Display aspect ratio        : 2.40:1
Frame rate mode             : Constant
Frame rate                  : 24.000 FPS
Color space                 : YUV
Chroma subsampling          : 4:2:0
Bit depth                   : 8 bits
Scan type                   : Progressive
Bits/(Pixel*Frame)          : 0.195
Stream size                 : 1.59 GiB (85%)
Writing library             : x264 core 146 r2538 121396c
Encoding settings           : cabac=1 / ref=11 / deblock=1:-2:-2 / analyse=0x3:0x113 / me=umh / subme=11 / psy=1 / psy_rd=1.00:0.15 / mixed_ref=1 / me_range=64 / chroma_me=1 / trellis=2 / 8x8dct=1 / cqm=0 / deadzone=21,11 / fast_pskip=0 / chroma_qp_offset=-3 / threads=12 / lookahead_threads=2 / sliced_threads=0 / nr=0 / decimate=1 / interlaced=0 / bluray_compat=0 / constrained_intra=0 / bframes=8 / b_pyramid=2 / b_adapt=2 / b_bias=0 / direct=1 / weightb=1 / open_gop=0 / weightp=2 / keyint=240 / keyint_min=23 / scenecut=40 / intra_refresh=0 / rc=crf / mbtree=0 / crf=20.0 / qcomp=0.60 / qpmin=0 / qpmax=69 / qpstep=4 / ip_ratio=1.40 / pb_ratio=1.30 / aq=1:1.00
Language                    : English
Default                     : Yes
Forced                      : No

Audio
ID                          : 2
Format                      : AC-3
Format/Info                 : Audio Coding 3
Mode extension              : CM (complete main)
Format settings, Endianness : Big
Codec ID                    : A_AC3
Duration                    : 1 h 44 min
Bit rate mode               : Constant
Bit rate                    : 384 kb/s
Channel(s)                  : 6 channels
Channel positions           : Front: L C R, Side: L R, LFE
Sampling rate               : 48.0 kHz
Frame rate                  : 31.250 FPS (1536 spf)
Bit depth                   : 16 bits
Compression mode            : Lossy
Stream size                 : 287 MiB (15%)
Language                    : Russian
Default                     : Yes
Forced                      : No



Скриншоты:
[+] Всего файлов в раздаче - 1:
Скиф.mkv1.87 GB

Текущая раздача:
ДатаКомментарии    РазмерПиры
2018-05-05 U Скиф (2018) HDRip-AVC от SuperMin 1.87 GB ↑ 220 ↓ 96

Похожие раздачи по запросу - скиф:
2018-02-21 U Скиф (2017) WEB-DLRip от Scarabey | iTunes 3К1.45 GB ↑ 817 ↓ 235

Отзывы
Зарегистрируйтесь чтобы добавить комментарий.
Обратная связь
Copyleft ©