↑↓Torrent.by
Поиск
Логин: Регистрация
Пароль: Восстановить пароль
Загрузка...

В августе 44-го (2001) HDTVRip-AVC от ExKinoRay

Скачать v-avguste-44-go-2001-hdtvrip-avc-ot-exkinoray.torrent
U Магнитная ссылка Размер: 746.05 MB Раздают: 90 Качают: 23 Добавлен: 2018-05-09 14:01:32
В августе 44-го (2001) HDTVRip-AVC от ExKinoRay

Название: В августе 44-го
Год выхода: 2001
Жанр:  Военный, боевик, драма, экранизация
Режиссер: Михаил Пташук
В ролях: Евгений Миронов, Владислав Галкин, Юрий Колокольников, Алексей Петренко, Александр Балуев, Беата Тышкевич, Анатолий Кот, Александр Феклистов, Алексей Панин, Рамаз Чхиквадзе, Ярослав Бойко, Анджей Печински, Анна Казючиц, Алексей Макаров, Каролина Грушка, Виктор Павлов, Альберт Филозов, Александр Лабуш, Константин Соловьёв, Юрий Цурило, Иван Лешук, Сергей Кравец, Радослав Пазура, Александр Ефимов, Юрий Пристром, Александр Тимошкин, Николай Кириченко, Геннадий Давыдько, Владимир Семаго, Сергей Шарангович, Виктор Манаев, Александр Суцковер, Полина Ганшина

О фильме :
События происходят в августе 1944 года. На территории освобождённой Белоруссии в тылу советских войск действуют вражеские агенты. Регулярно в эфир выходит радиостанция с позывными «КАО», передающая шифрованные радиограммы. Контрразведчикам из СМЕРШа, трём молодым офицерам во главе с капитаном Алёхиным, поручено в кратчайшие сроки разыскать диверсионную группу. Таких оперативников в своей среде называли волкодавами или чистильщиками.

Страна: Россия, Беларусь
Выпущено: Беларусьфильм
Продолжительность: 01:43:06
Ясык: Русский

Файл
Формат: MKV
Качество: HDTVRip-AVC
Видео: MPEG-4 AVC, 752x456, ~ 934 Кбит/с
Аудио:  AAC-HE, 2 ch, ~ 76 Кбит/с

Релиз:


[+] MI
Общее
Уникальный идентификатор : 293173914042715574779166275870270498955 (0xDC8F3DF380B626BBD7CAB876A93D288B)
Полное имя : D:MOVIESV.avguste.44.2001.ExKinoRay.mkv
Формат : Matroska
Версия формата : Version 2
Размер файла : 746 Мбайт
Продолжительность : 1 ч. 43 м.
Общий поток : 1012 Кбит/сек
Дата кодирования : UTC 2018-05-09 01:54:01
Программа кодирования : mkvmerge v23.0.0 ('The Bride Said No') 64-bit
Библиотека кодирования : libebml v1.3.6 + libmatroska v1.4.9

Видео
Идентификатор : 1
Формат : AVC
Формат/Информация : Advanced Video Codec
Профиль формата : High@L4.1
Параметр CABAC формата : Да
Параметр RefFrames формата : 10 кадров
Идентификатор кодека : V_MPEG4/ISO/AVC
Продолжительность : 1 ч. 43 м.
Битрейт : 934 Кбит/сек
Ширина : 752 пикселя
Высота : 456 пикселей
Соотношение сторон : 16:10
Режим частоты кадров : Постоянный
Частота кадров : 25,000 кадров/сек
Цветовое пространство : YUV
Субдискретизация насыщенности : 4:2:0
Битовая глубина : 8 бит
Тип развёртки : Прогрессивная
Бит/(Пиксели*Кадры) : 0.109
Размер потока : 689 Мбайт (92%)
Библиотека кодирования : x264 core 155 r2901 7d0ff22
Настройки программы : cabac=1 / ref=10 / deblock=1:-3:-3 / analyse=0x3:0x133 / me=umh / subme=11 / psy=1 / psy_rd=1.00:0.13 / mixed_ref=1 / me_range=32 / chroma_me=1 / trellis=2 / 8x8dct=1 / cqm=0 / deadzone=21,11 / fast_pskip=0 / chroma_qp_offset=-3 / threads=6 / lookahead_threads=1 / sliced_threads=0 / nr=0 / decimate=0 / interlaced=0 / bluray_compat=0 / constrained_intra=0 / bframes=10 / b_pyramid=2 / b_adapt=2 / b_bias=0 / direct=3 / weightb=1 / open_gop=0 / weightp=2 / keyint=250 / keyint_min=24 / scenecut=40 / intra_refresh=0 / rc_lookahead=40 / rc=2pass / mbtree=1 / bitrate=934 / ratetol=1.0 / qcomp=0.60 / qpmin=0 / qpmax=69 / qpstep=4 / cplxblur=20.0 / qblur=0.5 / vbv_maxrate=50000 / vbv_bufsize=62500 / nal_hrd=none / filler=0 / ip_ratio=1.40 / aq=3:1.00
Default : Да
Forced : Нет

Аудио
Идентификатор : 2
Формат : AAC
Формат/Информация : Advanced Audio Codec
Профиль формата : HE-AAC / LC
Идентификатор кодека : A_AAC
Продолжительность : 1 ч. 43 м.
Битрейт : 76,0 Кбит/сек
Каналы : 2 канала
Расположение каналов : Front: L R
Частота : 48,0 КГц / 24,0 КГц
Частота кадров : 23,438 кадра/сек (1024 SPF)
Метод сжатия : С потерями
Задержка видео : 31 мс.
Размер потока : 56,0 Мбайт (8%)
Язык : English
Default : Да
Forced : Нет



Скриншоты:
[+] Всего файлов в раздаче - 1:
V.avguste_44.2001.ExKinoRay.mkv746.05 MB

Текущая раздача:
ДатаКомментарии    РазмерПиры
2018-05-09 U В августе 44-го (2001) HDTVRip-AVC от ExKinoRay 746.05 MB ↑ 90 ↓ 23

Похожие раздачи по запросу - августе:
2018-05-16 U В августе 44-го (2001) HDTVRip-AVC от KORSAR 3.12 GB ↑ 50 ↓ 17
2016-02-17 U В августе 44-го (2001) SATRip-AVC от ExKinoRay 1.94 GB ↑ 79 ↓ 47
2013-12-09 U В августе 44-го... (2001) DVDRip от Alekxandr48 2К701.24 MB ↑ 134 ↓ 4
2013-10-28 U В августе 44-го... (2001) DVDRip 4К1.96 GB ↑ 124 ↓ 65534

Отзывы
Зарегистрируйтесь чтобы добавить комментарий.
Обратная связь
Copyleft ©