↑↓Torrent.by
Поиск
Логин: Регистрация
Пароль: Восстановить пароль
Загрузка...

Восхождение (1976) DVDRip-AVC от KORSAR

Скачать voshozhdenie-1976-dvdrip-avc-ot-korsar.torrent
U Магнитная ссылка Размер: 2.29 GB Раздают: 54 Качают: 17 Добавлен: 2018-05-09 15:04:37
Восхождение (1976) DVDRip-AVC от KORSAR

Восхождение

Страна: СССР
Жанр:  Военный, драма, экранизация
Год выпуска: 1976
Продолжительность: 01:49:15
Перевод: Не требуется
Режиссер: Лариса Шепитько
В ролях: Борис Плотников (дублирует Александр Демьяненко), Владимир Гостюхин, Анатолий Солоницын, Сергей Яковлев, Людмила Полякова, Виктория Гольдентул, Мария Виноградова, Николай Сектименко, Сергей Канищев, Владимир Лаптев, Владимир Рудый, Вадим Гусев, Александра Харитонова, Александр Пятков, Галина Булкина, А. Герасимов, Леонид Юхин

Описание: По мотивам повести Василия Быкова “Сотников”.
Оккупированная фашистами Белоруссия. Офицер Сотников и солдат Рыбак отправляются из леса в село добыть еду для партизан, среди которых женщины и дети. Их настигают немцы. Физически немощный Сотников выстоял против пыток и принял казнь, а Рыбак, на коленях моливший о пощаде, согласился стать полицаем.

Кодек: х264
Качество: DVDRip-AVC
Видео: MPEG-4 AVC, 664х448@664x504, 23,976 fps, 2800 Кбит/с
Аудио: АС3, 1h, 192 Кбит/с
Субтитры: Нет
Главы: Есть


[+] Инфо файл

x264 [info]: frame I:782   Avg QP:16.04  size: 63908
x264 [info]: frame P:38492 Avg QP:18.48  size: 29558
x264 [info]: frame B:117886 Avg QP:19.46  size:  9396

Общее
Уникальный идентификатор                 : 237971196834147189463926024900731615192 (0xB30795DC048EFE0AAD17CBB50A4237D8)
Полное имя                               : I:сссрВосхождение 1976_DVDRip-AVC_KORSAR.mkv
Формат                                   : Matroska
Версия формата                           : Version 2
Размер файла                             : 2,29 Гбайт
Продолжительность                        : 1 ч. 49 м.
Общий поток                              : 2995 Кбит/сек
Дата кодирования                         : UTC 2018-05-07 22:41:36
Программа кодирования                    : mkvmerge v5.8.0 ('No Sleep / Pillow') built on Sep  2 2012 15:37:04
Библиотека кодирования                   : libebml v1.2.3 + libmatroska v1.3.0

Видео
Идентификатор                            : 1
Формат                                   : AVC
Формат/Информация                        : Advanced Video Codec
Профиль формата                          : High@L4.1
Настройки формата                        : CABAC / 15 Ref Frames
Параметр CABAC формата                   : Да
Параметр RefFrames формата               : 15 кадров
Идентификатор кодека                     : V_MPEG4/ISO/AVC
Продолжительность                        : 1 ч. 49 м.
Битрейт                                  : 2800 Кбит/сек
Ширина                                   : 664 пикселя
Высота                                   : 448 пикселей
Соотношение сторон                       : 4:3
Режим частоты кадров                     : Постоянный
Частота кадров                           : 23,976 (24000/1001) кадра/сек
Цветовое пространство                    : YUV
Субдискретизация насыщенности            : 4:2:0
Битовая глубина                          : 8 бит
Тип развёртки                            : Прогрессивная
Бит/(Пиксели*Кадры)                      : 0.393
Размер потока                            : 2,09 Гбайт (92%)
Библиотека кодирования                   : x264 core 152 r2851kMod ba24899
Настройки программы                      : cabac=1 / ref=15 / deblock=1:-2:-2 / analyse=0x3:0x133 / me=umh / subme=11 / psy=1 / fade_compensate=0.00 / psy_rd=1.05:0.10 / mixed_ref=1 / me_range=48 / chroma_me=1 / trellis=2 / 8x8dct=1 / cqm=0 / deadzone=21,11 / fast_pskip=0 / chroma_qp_offset=-3 / threads=12 / lookahead_threads=3 / sliced_threads=0 / nr=0 / decimate=0 / interlaced=0 / bluray_compat=0 / constrained_intra=0 / bframes=10 / b_pyramid=2 / b_adapt=2 / b_bias=0 / direct=3 / weightb=1 / open_gop=0 / weightp=2 / keyint=250 / keyint_min=23 / scenecut=40 / intra_refresh=0 / rc_lookahead=40 / rc=2pass / mbtree=0 / bitrate=2800 / ratetol=1.0 / qcomp=0.60 / qpmin=0 / qpmax=39 / qpstep=4 / cplxblur=20.0 / qblur=0.5 / vbv_maxrate=50000 / vbv_bufsize=62500 / nal_hrd=none / filler=0 / ip_ratio=1.25 / pb_ratio=1.30 / aq=1:1.00
Язык                                     : English
Default                                  : Да
Forced                                   : Нет
Цветовой диапазон                        : Limited
Основные цвета                           : BT.601 PAL
Характеристики трансфера                 : BT.470 System B, BT.470 System G
Коэффициенты матрицы                     : BT.470 System B, BT.470 System G

Аудио
Идентификатор                            : 2
Формат                                   : AC-3
Формат/Информация                        : Audio Coding 3
Параметр Endianness формата              : Big
Идентификатор кодека                     : A_AC3
Продолжительность                        : 1 ч. 49 м.
Вид битрейта                             : Постоянный
Битрейт                                  : 192 Кбит/сек
Каналы                                   : 1 канал
Расположение каналов                     : Front: C
Частота                                  : 48,0 КГц
Частота кадров                           : 31,250 кадров/сек (1536 SPF)
Битовая глубина                          : 16 бит
Метод сжатия                             : С потерями
Размер потока                            : 150 Мбайт (6%)
Язык                                     : Russian
Default                                  : Да
Forced                                   : Нет

Меню
00:00:00.000                             : en:Chapter 1
00:08:29.033                             : en:Chapter 2
00:15:51.901                             : en:Chapter 3
00:19:42.368                             : en:Chapter 4
00:29:25.868                             : en:Chapter 5
00:42:30.202                             : en:Chapter 6
00:48:30.602                             : en:Chapter 7
00:58:39.369                             : en:Chapter 8
01:03:20.536                             : en:Chapter 9
01:16:44.337                             : en:Chapter 10
01:21:29.337                             : en:Chapter 11
01:28:20.370                             : en:Chapter 12
01:40:47.537                             : en:Chapter 13
01:49:07.837                             : en:Chapter 14




Скриншоты:
[+] Всего файлов в раздаче - 1:
Восхождение 1976_DVDRip-AVC_KORSAR.mkv2.29 GB

Текущая раздача:
ДатаКомментарии    РазмерПиры
2018-05-09 U Восхождение (1976) DVDRip-AVC от KORSAR 2.29 GB ↑ 54 ↓ 17

Показать еще раздачи по запросу восхождение:
2018-07-08 U Восхождение Юпитер / Jupiter Ascending (2015) BDRip 1080p от Rustorka | 60 fps | Лицензия 11.64 GB ↑ 121 ↓ 83
2018-01-17 U Восхождение Юпитер / Jupiter Ascending (2015) BDRip 1080p | D, A | Лицензия 13.19 GB ↑ 237 ↓ 84
2017-11-11 U Восхождение пехотинца 3 / Rise of the Footsoldier 3 (2017) WEBRip | L2 1.37 GB ↑ 127 ↓ 58
2017-08-26 U Восхождение на Олимп [01-08 из 08] (2015) HDTVRip-AVC от Files-x 6.36 GB ↑ 50 ↓ 45
2017-08-25 U Восхождение на Олимп [01-08 из 08] (2015) HDTVRip 720p от GeneralFilm 10.71 GB ↑ 97 ↓ 102
2017-08-25 U Восхождение на Олимп [01-08 из 08] (2015) HDTVRip от GeneralFilm 2К5.80 GB ↑ 138 ↓ 86
2017-08-23 U Восхождение на Олимп [01-04 из 08] (2015) HDTVRip от GeneralFilm 2.92 GB ↑ 36 ↓ 25

Отзывы
Зарегистрируйтесь чтобы добавить комментарий.
Обратная связь
Copyleft ©