↑↓Torrent.by
Поиск
Логин: Регистрация
Пароль: Восстановить пароль
Загрузка...

Крепость на колесах (1960) DVDRip-AVC от New-Team

Скачать krepost-na-kolesah-1960-dvdrip-avc-ot-new-team.torrent
U Магнитная ссылка Размер: 743.90 MB Раздают: 41 Качают: 18 Добавлен: 2018-05-09 15:36:30
Крепость на колесах (1960) DVDRip-AVC от New-Team

Страна: СССР
Производство: Киностудия им. Довженко
Жанр:  военный
Год выпуска: 1960
Продолжительность: 01:17:46
Перевод: Не требуется
Cубтитры: нет
Оригинальная аудиодорожка: русский
Режиссер: Олег Ленциус
В ролях:
Борис Дмоховский, Григорий Михайлов, Василий Векшин, Андрей Хлебников, Михаил Пуговкин, Наталья Наум, Павел Дубашинский, Анвар Тураев, Борис Харитонов, Николай Козленко, Владимир Мишаков, Владимир Коршун, Александр Ануров, Владимир Волков, Алексей Бунин, Степан Бирилло, Николай Крюков, Владислав Болеславский...
Об актёрах подробней

Описание:
О героической команде бронепоезда N56, совершившей легендарный подвиг в первые дни Великой Отечественной войны на Украине.

[url=http://www.imdb.com/title/tt4974212/" target="_blank">


[+] MediaInfo

Общее
Полное имя                               : Krepost.na.kolesah.1960.DVDRip-AVC_[New-team]_by_AVP_Studio.mkv
Формат                                   : Matroska
Версия формата                           : Version 2
Размер файла                             : 744 Мбайт
Продолжительность                        : 1 ч. 17 м.
Общий поток                              : 1337 Кбит/сек
Дата кодирования                         : UTC 2018-05-05 14:57:53
Программа кодирования                    : mkvmerge v6.1.0 ('Old Devil') built on Mar  4 2013 09:10:42
Библиотека кодирования                   : libebml v1.3.0 + libmatroska v1.4.0

Видео
Идентификатор                            : 1
Формат                                   : AVC
Формат/Информация                        : Advanced Video Codec
Профиль формата                          : High@L4.1
Настройки формата                        : CABAC / 10 Ref Frames
Параметр CABAC формата                   : Да
Параметр RefFrames формата               : 10 кадров
Идентификатор кодека                     : V_MPEG4/ISO/AVC
Продолжительность                        : 1 ч. 17 м.
Битрейт                                  : 1144 Кбит/сек
Ширина                                   : 716 пикселей
Высота                                   : 468 пикселей
Соотношение сторон                       : 2,35:1
Режим частоты кадров                     : Постоянный
Частота кадров                           : 25,000 кадров/сек
Цветовое пространство                    : YUV
Субдискретизация насыщенности            : 4:2:0
Битовая глубина                          : 8 бит
Тип развёртки                            : Прогрессивная
Бит/(Пиксели*Кадры)                      : 0.137
Размер потока                            : 622 Мбайт (84%)
Библиотека кодирования                   : x264 core 130 r2273 b3065e6
Настройки программы                      : cabac=1 / ref=10 / deblock=1:-2:-1 / analyse=0x3:0x113 / me=umh / subme=10 / psy=1 / psy_rd=1.00:0.00 / mixed_ref=1 / me_range=32 / chroma_me=1 / trellis=2 / 8x8dct=1 / cqm=0 / deadzone=21,11 / fast_pskip=1 / chroma_qp_offset=-2 / threads=6 / lookahead_threads=1 / sliced_threads=0 / nr=0 / decimate=0 / interlaced=0 / bluray_compat=0 / constrained_intra=0 / bframes=8 / b_pyramid=2 / b_adapt=2 / b_bias=0 / direct=3 / weightb=1 / open_gop=0 / weightp=2 / keyint=250 / keyint_min=25 / scenecut=40 / intra_refresh=0 / rc=2pass / mbtree=0 / bitrate=1144 / ratetol=1.0 / qcomp=0.60 / qpmin=0 / qpmax=69 / qpstep=4 / cplxblur=20.0 / qblur=0.5 / ip_ratio=1.40 / pb_ratio=1.30 / aq=1:1.00
Default                                  : Да
Forced                                   : Нет

Аудио
Идентификатор                            : 2
Формат                                   : AC-3
Формат/Информация                        : Audio Coding 3
Идентификатор кодека                     : A_AC3
Продолжительность                        : 1 ч. 17 м.
Вид битрейта                             : Постоянный
Битрейт                                  : 192 Кбит/сек
Каналы                                   : 2 канала
Расположение каналов                     : Front: L R
Частота                                  : 48,0 КГц
Частота кадров                           : 31,250 кадров/сек (1536 SPF)
Битовая глубина                          : 16 бит
Метод сжатия                             : С потерями
Размер потока                            : 107 Мбайт (14%)
Default                                  : Да
Forced                                   : Нет



Скриншоты:
[+] Всего файлов в раздаче - 1:
Krepost.na.kolesah.1960.DVDRip-AVC_[New-team]_by_AVP_Studio.mkv743.90 MB

Текущая раздача:
ДатаКомментарии    РазмерПиры
2018-05-09 U Крепость на колесах (1960) DVDRip-AVC от New-Team 743.90 MB ↑ 41 ↓ 18

Показать еще раздачи по запросу крепость:
2018-05-14 U Крепость / Fortress (1985) DVDRip | A 1.37 GB ↑ 39 ↓ 9
2018-02-21 U Крепость / Застава / Хранитель / The Keep (1983) HDTVRip-AVC | P2, A 2К1.83 GB ↑ 33 ↓ 17
2018-02-17 U Крепость Бадабер [01-04 из 04] (2018) HDTVRip от Generalfilm | КПК 749.65 MB ↑ 71 ↓ 26
2018-02-16 U Крепость Бадабер [01-04 из 04] (2018) WEB-DL 1080p от Files-x 6.73 GB ↑ 429 ↓ 202
2018-02-16 U Крепость Бадабер [01-04 из 04] (2018) HDTV 1080i от GeneralFilm 14.71 GB ↑ 187 ↓ 288
2018-02-16 U Крепость Бадабер [01-04 из 04] (2018) HDTVRip от GeneralFilm 2.75 GB ↑ 477 ↓ 359
2018-02-16 U Крепость Бадабер [01-04 из 04] (2018) WEB-DLRip от Files-x 2.39 GB ↑ 101 ↓ 81

Отзывы
Зарегистрируйтесь чтобы добавить комментарий.
Обратная связь
Copyleft ©