↑↓Torrent.by
Поиск
Логин: Регистрация
Пароль: Восстановить пароль
Загрузка...

Миссии / Missions [S01] (2017) HDTVRip | Sunshine Studio

Скачать missii-missions-s01-2017-hdtvrip-sunshine-studio.torrent
U Магнитная ссылка Размер: 2.82 GB Раздают: 51 Качают: 21 Добавлен: 2018-05-09 19:02:11
Миссии / Missions [S01] (2017) HDTVRip | Sunshine Studio

Название: Миссии
Оригинальное название: Missions
Год выхода: 2017
Жанр: фантастика
Режиссер: Жюльен Лякомб
В ролях: Хелена Вивс, Клементе Обер, Матиа Млекюз, Жан-Туссен Бернард, Джиорджия Синикорни, Коме Левин, Эйдрианна Градзьел, Арбен Байрактарай, Винсент Лондез

О фильме:
Первый пилотируемый полёт на Марс прошёл успешно. В команде только лучшие: первоклассные космонавты и девушка-психолог, отвечающая за психическое здоровье экипажа. Однако при возвращении на Землю что-то пошло не так.

Страна: Франция
Продолжительность: ~00:25:00
Перевод: Любительский двухголосый Sunshine Studio

Файл
Кодек: XviD
Качество: HDTVRip
Видео: 720x272, 25,000 fps, ~1500 kbps
Аудио 1: MP3, 48 kHz, 2 ch, 128 kbps |Русский|
Аудио 2: MP3, 48 kHz, 2 ch, 128 kbps |Французский|

Без рекламы!

Релиз от: Sunshine Studio
[+] MediaInfo
Формат                                   : AVI
Формат/Информация                        : Audio Video Interleave
Размер файла                             : 280 Мбайт
Продолжительность                        : 21 м. 40 с.
Общий поток                              : 1807 Кбит/сек
Программа кодирования                    : VirtualDubMod 1.5.10.3 (build 2550/release)
Библиотека кодирования                   : VirtualDubMod build 2550/release

Видео
Идентификатор                            : 0
Формат                                   : MPEG-4 Visual
Профиль формата                          : Advanced Simple@L5
Параметр BVOP формата                    : 1
Параметр QPel формата                    : Нет
Параметр GMC формата                     : Без точки перехода
Параметр матрицы формата                 : Default (H.263)
Идентификатор кодека                     : XVID
Идентификатор кодека/Подсказка           : XviD
Продолжительность                        : 21 м. 40 с.
Битрейт                                  : 1536 Кбит/сек
Ширина                                   : 720 пикселей
Высота                                   : 272 пикселя
Соотношение сторон                       : 2,647
Частота кадров                           : 25,000 кадров/сек
Цветовое пространство                    : YUV
Субдискретизация насыщенности            : 4:2:0
Битовая глубина                          : 8 бит
Тип развёртки                            : Прогрессивная
Метод сжатия                             : С потерями
Бит/(Пиксели*Кадры)                      : 0.314
Размер потока                            : 238 Мбайт (85%)
Библиотека кодирования                   : XviD 1.2.1 (UTC 2008-12-04)

Аудио #1
Идентификатор                            : 1
Формат                                   : MPEG Audio
Версия формата                           : Version 1
Профиль формата                          : Layer 3
Режим                                    : Joint stereo
Расширение режима                        : MS Stereo
Идентификатор кодека                     : 55
Идентификатор кодека/Подсказка           : MP3
Продолжительность                        : 21 м. 40 с.
Вид битрейта                             : Постоянный
Битрейт                                  : 128 Кбит/сек
Каналы                                   : 2 канала
Частота                                  : 48,0 КГц
Метод сжатия                             : С потерями
Размер потока                            : 19,8 Мбайт (7%)
Выравнивание                             : Соединение по промежуткам
Продолжительность промежутка             : 40  мс. (1,00 видеокадр)
Время предзагрузки промежутка            : 504  мс.

Аудио #2
Идентификатор                            : 2
Формат                                   : MPEG Audio
Версия формата                           : Version 1
Профиль формата                          : Layer 3
Режим                                    : Joint stereo
Расширение режима                        : MS Stereo
Идентификатор кодека                     : 55
Идентификатор кодека/Подсказка           : MP3
Продолжительность                        : 21 м. 40 с.
Вид битрейта                             : Постоянный
Битрейт                                  : 128 Кбит/сек
Каналы                                   : 2 канала
Частота                                  : 48,0 КГц
Метод сжатия                             : С потерями
Размер потока                            : 19,8 Мбайт (7%)
Выравнивание                             : Соединение по промежуткам
Продолжительность промежутка             : 40  мс. (1,00 видеокадр)
Время предзагрузки промежутка            : 504  мс.



Скриншоты:
[+] Всего файлов в раздаче - 10:
Missions.S01E01.HDTVRip.RusFren.SunSt.L.avi330.66 MB
Missions.S01E02.HDTVRip.RusFren.SunSt.L.avi280.21 MB
Missions.S01E03.HDTVRip.RusFren.SunSt.L.avi260.70 MB
Missions.S01E04.HDTVRip.RusFren.SunSt.L.avi299.53 MB
Missions.S01E05.HDTVRip.RusFren.SunSt.L.avi320.61 MB
Missions.S01E06.HDTVRip.RusFren.SunSt.L.avi280.69 MB
Missions.S01E07.HDTVRip.RusFren.SunSt.L.avi320.11 MB
Missions.S01E08.HDTVRip.RusFren.SunSt.L.avi270.63 MB
Missions.S01E09.HDTVRip.RusFren.SunSt.L.avi260.14 MB
Missions.S01E10.HDTVRip.RusFren.SunSt.L.avi260.46 MB

Текущая раздача:
ДатаКомментарии    РазмерПиры
2018-05-09 U Миссии / Missions [S01] (2017) HDTVRip | Sunshine Studio 2.82 GB ↑ 51 ↓ 21

Похожие раздачи по запросу - миссии:
2017-09-06 U Военные миссии особого назначения [01-04 из 04] (2017) WEBRip от Files-x 1К1.90 GB ↑ 119 ↓ 76
2017-07-13 U Миссии / Missions [S01] (2017) HDTVRip 720p | SunshineStudio 2.70 GB ↑ 331 ↓ 159
2017-07-07 U Миссии / Missions [01х01-05 из 10] (2017) HDTVRip 720p | SunshineStudio 1.36 GB ↑ 142 ↓ 74
2017-07-05 U Миссии / Missions [01х01-03 из 10] (2017) HDTVRip 720p | SunshineStudio 886.33 MB ↑ 97 ↓ 47
2017-07-04 U Миссии / Missions [01х01-02 из 10] (2017) HDTVRip 720p | SunshineStudio 639.71 MB ↑ 125 ↓ 27

Отзывы
Зарегистрируйтесь чтобы добавить комментарий.
Обратная связь
Copyleft ©