↑↓Torrent.by
Поиск
Логин: Регистрация
Пароль: Восстановить пароль
Загрузка...

Евровидение 2018. 2-ой полуфинал / Eurovision Song Contest (2018) DVB

Скачать evrovidenie-2018-2-oy-polufinal-eurovision-song-contest-dvb.torrent
U Магнитная ссылка Размер: 2.15 GB Раздают: 56 Качают: 40 Добавлен: 2018-05-11 09:57:58
Евровидение 2018. 2-ой полуфинал / Eurovision Song Contest (2018) DVB

Страна:  Португалия
Жанр:  POP
Год выпуска: 2018
Продолжительность: 02:01:23
Язык комментаторов: Украинский(Аудио 1), Русский(Аудио 2)

Описание: Евровидение-2018 - Конкурс песни «Евровидение-2018» - 63‑й конкурс песни «Евровидение», который впервые проходит в столице Португалии городе Лиссабоне, благодаря победе Салвадора Собрала с песней «Amar pelos dois» на конкурсе предыдущего года, проходившем в Киеве, Украина. Первый и второй полуфиналы конкурса состоятся 8 и 10 мая, финал - 12 мая 2018 года.

Формат: MKV
Качество: DVB
Видео кодек: H.264
Аудио кодек: MP2
Видео: H.264,  2100  Kbps, 720x576@1024x576
Аудио 1: MP2, 2ch, 192 kbps
Аудио 2: MP2, 2ch, 192 kbps
[+] Треклист
01 Норвегия Александр Рыбак «That's How You Write А Song »
02 Румыния The Humans «Goodbye »
03 Сербия Саня Илич и Балканика «Nova deca»
04 Сан-Марино Джессика и Дженифер Бренинг «Who We Are »
05 Дания Расмуссен «Higher Ground »
06 Россия Юлия Самойлова «I Won't Break»
07 Молдавия DoReDoS «My Lucky Day»
08 Нидерланды Уэйлон «Outlaw in 'Em »
09 Австралия Джессика Маубой «We Got Love »
10 Грузия Iriao «Sheni Gulistvis »
11 Польша Gromee «Light Me Up »
12 Мальта Кристабель «Taboo »
13 Венгрия AWS «Viszlát nyár»
14 Латвия Лаура Риззотто «Funny Girl »
15 Швеция Бенджамин Ингроссо «Dance You Off »
16 Черногория Ваня Радованович «Inje »
17 Словения Леа Сирк «Hvala, ne! »
18 Украина Melovin «Under the Ladder»



[+] MedaInfo
Complete name: D:Eurоvision_2018_2_ukr_rus.mkv
Format                      : Matroska
Format version              : Version 4 / Version 2
File size                   : 2.15 GiB
Duration                    : 2 h 1 min
Overall bit rate            : 2 533 kb/s
Encoded date                : UTC 2018-05-10 23:33:59
Writing application         : mkvmerge v8.3.0 ('Over the Horizon') 64bit
Writing library             : libebml v1.3.1 + libmatroska v1.4.2 / Lavf57.71.100

Video
ID                          : 1
Format                      : AVC
Format/Info                 : Advanced Video Codec
Format profile              : Main@L3
Format settings, CABAC      : Yes
Format settings, ReFrames   : 4 frames
Codec ID                    : V_MPEG4/ISO/AVC
Duration                    : 2 h 1 min
Bit rate                    : 2 148 kb/s
Width                       : 720 pixels
Height                      : 576 pixels
Display aspect ratio        : 16:9
Original display aspect rat : 16:9
Frame rate mode             : Constant
Frame rate                  : 25.000 FPS
Standard                    : PAL
Color space                 : YUV
Chroma subsampling          : 4:2:0
Bit depth                   : 8 bits
Scan type                   : MBAFF
Scan type, store method     : Interleaved fields
Scan order                  : Top Field First
Bits/(Pixel*Frame)          : 0.207
Stream size                 : 1.82 GiB (85%)
Default                     : Yes
Forced                      : No
Color range                 : Limited
Color primaries             : BT.601 PAL
Transfer characteristics    : BT.470 System B, BT.470 System G
Matrix coefficients         : BT.601

Audio #1
ID                          : 2
Format                      : MPEG Audio
Format version              : Version 1
Format profile              : Layer 2
Mode                        : Joint stereo
Mode extension              : Intensity Stereo + MS Stereo
Codec ID                    : A_MPEG/L2
Codec ID/Hint               : MP2
Duration                    : 2 h 1 min
Bit rate mode               : Constant
Bit rate                    : 192 kb/s
Channel(s)                  : 2 channels
Sampling rate               : 48.0 kHz
Frame rate                  : 41.667 FPS (1152 spf)
Compression mode            : Lossy
Delay relative to video     : 229 ms
Stream size                 : 167 MiB (8%)
Language                    : Ukrainian
Default                     : Yes
Forced                      : No

Audio #2
ID                          : 3
Format                      : MPEG Audio
Format version              : Version 1
Format profile              : Layer 2
Codec ID                    : A_MPEG/L2
Codec ID/Hint               : MP2
Duration                    : 2 h 0 min
Bit rate mode               : Constant
Bit rate                    : 192 kb/s
Channel(s)                  : 2 channels
Sampling rate               : 48.0 kHz
Frame rate                  : 41.667 FPS (1152 spf)
Compression mode            : Lossy
Delay relative to video     : 229 ms
Stream size                 : 166 MiB (8%)
Default                     : No
Forced                      : No



Скриншоты:
[+] Всего файлов в раздаче - 1:
Eurоvision_2018_2_ukr_rus.mkv2.15 GB

Текущая раздача:
ДатаКомментарии    РазмерПиры
2018-05-11 U Евровидение 2018. 2-ой полуфинал / Eurovision Song Contest (2018) DVB 2.15 GB ↑ 56 ↓ 40

Показать еще раздачи по запросу евровидение:
2018-05-13 U Евровидение 2018. Финал / Eurovision 2018 (2018) HDTV 1080i 18.39 GB ↑ 89 ↓ 132
2018-05-11 U Евровидение 2018. 2-й полуфинал / Eurovision 2018 (2018) HDTV 1080i 9.78 GB ↑ 42 ↓ 41
2018-05-11 U Евровидение 2018. 1-й полуфинал / Eurovision Song Contest (2018) DVB 2.14 GB ↑ 115 ↓ 7
2018-05-09 U Евровидение 2018. 1-й полуфинал / Eurovision 2018 (2018) HDTV 1080i 7.68 GB ↑ 51 ↓ 61
2018-05-09 U Евровидение 2018. 1-й полуфинал / Eurovision Song Contest (2018) DVB 1.98 GB ↑ 41 ↓ 41
2017-05-15 U Евровидение 2017. Финал / Eurovision 2017 (2017) HDTVRip от ImperiaFilm 2.47 GB ↑ 104 ↓ 97
2017-05-14 U Евровидение 2017. Финал / Eurovision 2017 (2017) HDTV 1080i 2К12.55 GB ↑ 184 ↓ 332

Отзывы
Зарегистрируйтесь чтобы добавить комментарий.
Обратная связь
Copyleft ©