↑↓Torrent.by
Поиск
Логин: Регистрация
Пароль: Восстановить пароль
Загрузка...

Турецкое седло (2017) WEB-DLRip от Portablius

Скачать tureckoe-sedlo-2017-web-dlrip-ot-portablius.torrent
U Магнитная ссылка Размер: 698.54 MB Раздают: 70 Качают: 22 Добавлен: 2018-05-11 12:21:19
Турецкое седло (2017) WEB-DLRip от Portablius

Название: Турецкое седло
Год выхода: 2017
Жанр: Драма
Режиссер: Юсуп Разыков
В ролях: Валерий Маслов, Вероника Кузнецова, Виталий Даушев, Илья Коврижных, Сергей Генкин, Анна Беленькая, Алиса Вединяпина, Сергей Атрощенко (II)

О фильме: Тихий и неприметный Ильич — бывший «топтун», опытный агент по наружному наблюдению в КГБ, затем ФСБ. Теперь он на пенсии. От одиночества он продолжает следить за теми, кто пробуждает в нём интерес, любопытство. Однажды в его доме поселяются новые соседи — молодая семейная пара, музыканты, и жизнь Ильича неожиданно меняется. Он влюбляется. Сначала в голос, распевающий божественные арии, а затем и в саму прекрасную соседку. Повинуясь непреодолимому желанию, герой начинает тайно следовать за объектом своей страсти, и оказывается в совершенно новом, неведомом мире. Бывший агент еще не подозревает, что последствия этого пути окажутся шокирующими и непоправимыми.

Страна: Россия
Студия: «Тритона»
Продолжительность: 01:16:40
Перевод: Не требуется
Субтитры: Нет

Файл
Кодек: XviD
Качество: WEB-DLRip
Видео: 688x384 (1.79:1), 25 fps, XviD build 73 ~1191 kbps avg, 0.18 bit/pixel
Звук: 48 kHz, MPEG Layer 3, 2 ch, ~192.00 kbps avg


[+] MediaInfo
General
Complete name               : Turetskoe.Sedlo.2017.WEB-DLRip.ot.Portablius.avi
Format                      : AVI
Format/Info                 : Audio Video Interleave
File size                   : 699 MiB
Duration                    : 1 h 10 min
Overall bit rate            : 1 394 kb/s
Writing application         : VirtualDubMod 1.5.10.3 | www.virtualdub-fr.org || (build 2550/release)
Writing library             : VirtualDub build 35491/release

Video
ID                          : 0
Format                      : MPEG-4 Visual
Format profile              : Advanced Simple@L5
Format settings, BVOP       : 1
Format settings, QPel       : No
Format settings, GMC        : No warppoints
Format settings, Matrix     : Custom
Codec ID                    : XVID
Codec ID/Hint               : XviD
Duration                    : 1 h 10 min
Bit rate                    : 1 192 kb/s
Width                       : 688 pixels
Height                      : 384 pixels
Display aspect ratio        : 16:9
Frame rate                  : 25.000 FPS
Color space                 : YUV
Chroma subsampling          : 4:2:0
Bit depth                   : 8 bits
Scan type                   : Progressive
Compression mode            : Lossy
Bits/(Pixel*Frame)          : 0.180
Stream size                 : 597 MiB (86%)
Writing library             : XviD 73

Audio
ID                          : 1
Format                      : MPEG Audio
Format version              : Version 1
Format profile              : Layer 3
Codec ID                    : 55
Codec ID/Hint               : MP3
Duration                    : 1 h 10 min
Bit rate mode               : Constant
Bit rate                    : 192 kb/s
Channel(s)                  : 2 channels
Sampling rate               : 48.0 kHz
Compression mode            : Lossy
Stream size                 : 96.2 MiB (14%)
Alignment                   : Aligned on interleaves
Interleave, duration        : 40  ms (1.00 video frame)
Interleave, preload duratio : 504  ms
Writing library             : LAME3.99r
Encoding settings           : -m s -V 4 -q 2 -lowpass 18.6 -b 192




Скриншоты:
[+] Всего файлов в раздаче - 1:
Turetskoe.Sedlo.2017.WEB-DLRip.ot.Portablius.avi698.54 MB

Текущая раздача:
ДатаКомментарии    РазмерПиры
2018-05-11 U Турецкое седло (2017) WEB-DLRip от Portablius 698.54 MB ↑ 70 ↓ 22

Похожие раздачи по запросу - турецкое:
2018-05-07 U Турецкое седло (2017) WEB-DLRip-AVC от Files-x 1.37 GB ↑ 170 ↓ 50
2018-05-07 U Турецкое седло (2017) WEB-DL 1080p от Files-x 2.43 GB ↑ 343 ↓ 63
2018-05-07 U Турецкое седло (2017) WEB-DL 720p от Files-x 1.66 GB ↑ 104 ↓ 40
2018-05-07 U Турецкое седло (2017) WEB-DLRip от Files-x 1.46 GB ↑ 407 ↓ 130

Отзывы
Зарегистрируйтесь чтобы добавить комментарий.
Обратная связь
Copyleft ©