↑↓Torrent.by
Поиск
Логин: Регистрация
Пароль: Восстановить пароль
Загрузка...

Евровидение 2018. 1-й полуфинал / Eurovision Song Contest (2018) DVB

Скачать evrovidenie-2018-1-y-polufinal-eurovision-song-contest-dvb.torrent
U Магнитная ссылка Размер: 2.14 GB Раздают: 115 Качают: 7 Добавлен: 2018-05-11 15:37:24
Евровидение 2018. 1-й полуфинал / Eurovision Song Contest (2018) DVB

Страна:  Португалия
Жанр:  POP
Год выпуска: 2018
Продолжительность: 01:59:31
Язык комментаторов: Украинский(Аудио 1), Русский(Аудио 2)

Описание: Евровидение-2018 - Конкурс песни «Евровидение-2018» - 63‑й конкурс песни «Евровидение», который впервые проходит в столице Португалии городе Лиссабоне, благодаря победе Салвадора Собрала с песней «Amar pelos dois» на конкурсе предыдущего года, проходившем в Киеве, Украина. Первый и второй полуфиналы конкурса состоятся 8 и 10 мая, финал - 12 мая 2018 года.

Отдельная благодарность пользователю  kuzmichm2196 за русскую звуковую дорожку.

Формат: MKV
Качество: DVB
Видео кодек: H.264
Аудио кодек: MP2, AAC
Видео: H.264,  2100  Kbps, 720x576@1024x576
Аудио 1: MP2, 2ch, 192 kbps
Аудио 2: AAC, 2ch, 192 kbps
[+] Треклист
01 Азербайджан Айсель Мамедова «Пересеку моё сердце»
02 Исландия Ари Оулавссон «Наш выбор»
03 Албания Евгент Бушпепа «Тоска»
04 Бельгия Сеннек «Дело времени»
05 Чехия Миколас Йозеф «Лги мне»
06 Литва Ева Засимаускайте «Когда мы состаримся»
07 Израиль Нетта Барзилай «Игрушка»
08 Белоруссия Alekseev «Навсегда»
09 Эстония Элина Нечаева «Сила»
10 Болгария EQUINOX «Кости»
11 Македония Eye Cue «Потеряны и найдены»
12 Хорватия Франка «Сумасшедшая»
13 Австрия Сезар Семпсон «Никто кроме тебя»
14 Греция Янна Терзи «Моя мечта»
15 Финляндия Саара Аалто «Монстры»
16 Армения Севак Ханагян «Ветер»
17 Швейцария Zibbz «Камни»
18 Ирландия Райан О’Шонесси «Вместе»
19 Кипр Элени Фурейра «Огонь»



[+] MedaInfo
Eurоvision_2018_1_ukr_rus.mkv
Format                                   : Matroska
Format version                           : Version 4 / Version 2
File size                                : 2.14 GiB
Duration                                 : 1 h 59 min
Overall bit rate                         : 2 564 kb/s
Encoded date                             : UTC 2018-05-09 22:01:55
Writing application                      : mkvmerge v21.0.0 ('Tardigrades Will Inherit The Earth') 64-bit
Writing library                          : libebml v1.3.5 + libmatroska v1.4.8 / Lavf57.71.100

Video
ID                                       : 1
Format                                   : AVC
Format/Info                              : Advanced Video Codec
Format profile                           : Main@L3
Format settings                          : CABAC / 4 Ref Frames
Format settings, CABAC                   : Yes
Format settings, RefFrames               : 4 frames
Codec ID                                 : V_MPEG4/ISO/AVC
Duration                                 : 1 h 59 min
Bit rate                                 : 2 177 kb/s
Width                                    : 720 pixels
Height                                   : 576 pixels
Display aspect ratio                     : 16:9
Original display aspect ratio            : 16:9
Frame rate mode                          : Constant
Frame rate                               : 25.000 FPS
Standard                                 : PAL
Color space                              : YUV
Chroma subsampling                       : 4:2:0
Bit depth                                : 8 bits
Scan type                                : MBAFF
Scan type, store method                  : Interleaved fields
Scan order                               : Top Field First
Bits/(Pixel*Frame)                       : 0.210
Stream size                              : 1.82 GiB (85%)
Default                                  : Yes
Forced                                   : No
Color range                              : Limited
Color primaries                          : BT.601 PAL
Transfer characteristics                 : BT.470 System B, BT.470 System G
Matrix coefficients                      : BT.470 System B, BT.470 System G

Audio #1
ID                                       : 2
Format                                   : MPEG Audio
Format version                           : Version 1
Format profile                           : Layer 2
Format settings                          : Joint stereo / Intensity Stereo + MS Stereo
Mode                                     : Joint stereo
Mode extension                           : Intensity Stereo + MS Stereo
Codec ID                                 : A_MPEG/L2
Codec ID/Hint                            : MP2
Duration                                 : 1 h 59 min
Bit rate mode                            : Constant
Bit rate                                 : 192 kb/s
Channel(s)                               : 2 channels
Sampling rate                            : 48.0 kHz
Frame rate                               : 41.664 FPS (1152 SPF)
Compression mode                         : Lossy
Delay relative to video                  : 133 ms
Stream size                              : 164 MiB (7%)
Language                                 : Ukrainian
Default                                  : Yes
Forced                                   : No

Audio #2
ID                                       : 3
Format                                   : AAC
Format/Info                              : Advanced Audio Codec
Format profile                           : LC
Codec ID                                 : A_AAC-2
Duration                                 : 1 h 59 min
Bit rate                                 : 192 kb/s
Channel(s)                               : 2 channels
Channel positions                        : Front: L R
Sampling rate                            : 48.0 kHz
Frame rate                               : 46.875 FPS (1024 SPF)
Compression mode                         : Lossy
Delay relative to video                  : 137 ms
Stream size                              : 164 MiB (7%)
Language                                 : Russian
Default                                  : No
Forced                                   : No



Скриншоты:
[+] Всего файлов в раздаче - 1:
Eurоvision_2018_1_ukr_rus.mkv2.14 GB

Текущая раздача:
ДатаКомментарии    РазмерПиры
2018-05-11 U Евровидение 2018. 1-й полуфинал / Eurovision Song Contest (2018) DVB 2.14 GB ↑ 115 ↓ 7

Показать еще раздачи по запросу евровидение:
2018-05-13 U Евровидение 2018. Финал / Eurovision 2018 (2018) HDTV 1080i 18.39 GB ↑ 89 ↓ 132
2018-05-11 U Евровидение 2018. 2-й полуфинал / Eurovision 2018 (2018) HDTV 1080i 9.78 GB ↑ 42 ↓ 41
2018-05-11 U Евровидение 2018. 2-ой полуфинал / Eurovision Song Contest (2018) DVB 2.15 GB ↑ 56 ↓ 40
2018-05-09 U Евровидение 2018. 1-й полуфинал / Eurovision 2018 (2018) HDTV 1080i 7.68 GB ↑ 51 ↓ 61
2018-05-09 U Евровидение 2018. 1-й полуфинал / Eurovision Song Contest (2018) DVB 1.98 GB ↑ 41 ↓ 41
2017-05-15 U Евровидение 2017. Финал / Eurovision 2017 (2017) HDTVRip от ImperiaFilm 2.47 GB ↑ 104 ↓ 97
2017-05-14 U Евровидение 2017. Финал / Eurovision 2017 (2017) HDTV 1080i 2К12.55 GB ↑ 184 ↓ 332

Отзывы
Зарегистрируйтесь чтобы добавить комментарий.
Обратная связь
Copyleft ©