↑↓Torrent.by
Поиск
Логин: Регистрация
Пароль: Восстановить пароль
Загрузка...

Один в поле воин [01-04 из 04] (2018) HDTV 1080p от Generalfilm

Скачать odin-v-pole-voin-01-04-iz-2018-hdtv-1080p-ot-generalfilm.torrent
U Магнитная ссылка Размер: 9.17 GB Раздают: 167 Качают: 51 Добавлен: 2018-05-12 07:06:51
Один в поле воин [01-04 из 04] (2018) HDTV 1080p от Generalfilm

Название: Один в поле воин
Год выпуска: 2018

Страна: Украина
Жанр: военный, драма
Перевод: Не требуется [Русский]
Продолжительность: 00:49:23
Режиссер: Виталий Ващенко
В ролях: Александр Соколовский, Александра Эпштейн, Руслан Сасин, Анатолий Кот, Андрей Мостренко, Владимир Гладкий, Дарья Плахтий, Вероника Шостак, Константин Октябрьский

Описание:
В разгар войны группа красноармейцев попадает под трибунал. Их увозят из части, но по дороге солдаты попадают в засаду. В живых остается лишь Иван, осужденный за «самоволку». Парню удается незаметно сбежать и вернуться в свою часть, уже занятую противником. Досконально зная местность, он наносит немцам существенный урон, при этом не выдавая себя. Вскоре фашисты догадываются, что в расположении прячется диверсант. После неравной битвы Ивану удается скрыться, но немцы преследуют солдата, куда бы тот ни отправился. Бесстрашный боец еще не знает, что ему придется вступить в кровавую схватку с элитным отрядом SS, и помочь ему смогут лишь родные стены...

Качество: HDTV 1080p
Формат: MKV
Видео: AVC, 1920x1080 (16:9), 7050 kbps, 25 fps, 0,136 bpp
Аудио: AC3 / 2.0 / 48 kHz / 192 kbps /

Релиз:
[+] ОтчетМедиаИнфо

General
Unique ID                                : 248825898703513021073167516720591808164 (0xBB321FFB195583F9B67657E7187426A4)
Complete name                            : E:запись с твOdin v pole voin 2018.HDTV 1080p.R.G.GeneralfilmOdin v pole voin.e01.2018.HDTV 1080p.by.White Smoke.R.G.Generalfilm.mkv
Format                                   : Matroska
Format version                           : Version 4 / Version 2
File size                                : 2.49 GiB
Duration                                 : 49 min
Overall bit rate mode                    : Constant
Overall bit rate                         : 7 219 kb/s
Movie name                               : Odin v pole voin.e01.2018.HDTV 1080p.by.White Smoke.R.G.Generalfilm.mkv
Encoded date                             : UTC 2018-05-10 18:45:03
Writing application                      : mkvmerge v6.8.0 ('Theme for Great Cities') 64bit built on Mar  2 2014 21:34:26
Writing library                          : libebml v1.3.0 + libmatroska v1.4.1

Video
ID                                       : 1
Format                                   : AVC
Format/Info                              : Advanced Video Codec
Format profile                           : High@L4.1
Format settings, CABAC                   : Yes
Format settings, ReFrames                : 3 frames
Codec ID                                 : V_MPEG4/ISO/AVC
Duration                                 : 49 min
Bit rate mode                            : Constant
Bit rate                                 : 7 051 kb/s
Width                                    : 1 920 pixels
Height                                   : 1 080 pixels
Display aspect ratio                     : 16:9
Frame rate mode                          : Constant
Frame rate                               : 25.000 FPS
Standard                                 : PAL
Color space                              : YUV
Chroma subsampling                       : 4:2:0
Bit depth                                : 8 bits
Scan type                                : Progressive
Bits/(Pixel*Frame)                       : 0.136
Stream size                              : 2.37 GiB (95%)
Default                                  : Yes
Forced                                   : No
Color range                              : Limited
Color primaries                          : BT.709
Transfer characteristics                 : BT.709
Matrix coefficients                      : BT.709

Audio
ID                                       : 2
Format                                   : AC-3
Format/Info                              : Audio Coding 3
Mode extension                           : CM (complete main)
Format settings, Endianness              : Big
Codec ID                                 : A_AC3
Duration                                 : 49 min
Bit rate mode                            : Constant
Bit rate                                 : 192 kb/s
Channel(s)                               : 2 channels
Channel positions                        : Front: L R
Sampling rate                            : 48.0 kHz
Frame rate                               : 31.250 FPS (1536 spf)
Compression mode                         : Lossy
Stream size                              : 67.8 MiB (3%)
Default                                  : Yes
Forced                                   : No




Скриншоты:
[+] Всего файлов в раздаче - 4:
Odin v pole voin.e03.2018.HDTV 1080p.by.White Smoke.R.G.Generalfilm.mkv2.05 GB
Odin v pole voin.e02.2018.HDTV 1080p.by.White Smoke.R.G.Generalfilm.mkv2.21 GB
Odin v pole voin.e04.2018.HDTV 1080p.by.White Smoke.R.G.Generalfilm.mkv2.43 GB
Odin v pole voin.e01.2018.HDTV 1080p.by.White Smoke.R.G.Generalfilm.mkv2.49 GB

Текущая раздача:
ДатаКомментарии    РазмерПиры
2018-05-12 U Один в поле воин [01-04 из 04] (2018) HDTV 1080p от Generalfilm 9.17 GB ↑ 167 ↓ 51

Показать еще раздачи по запросу один:
2018-09-06 U Один день конца света / The End? / In un giorno la fine (2017) WEBRip 720p | L1 1.23 GB ↑ 85 ↓ 8
2018-09-06 U Один день конца света / The End? / In un giorno la fine (2017) WEB-DL 1080p | L1 3.39 GB ↑ 66 ↓ 12
2018-09-06 U Один день конца света / The End? / In un giorno la fine (2017) WEBRip-AVC | L1 770.34 MB ↑ 128 ↓ 13
2018-07-27 U Сьюзан Гринфилд - Один день из жизни мозга. Нейробиология сознания от рассвета до заката (2018) FB2 1.14 MB ↑ 213 ↓ 5
2018-07-23 U Земля: Один потрясающий день / Earth: One Amazing Day (2017) BDRip 720p от MegaPeer | Лицензия 5.04 GB ↑ 123 ↓ 24
2018-07-23 U Земля: Один потрясающий день / Earth: One Amazing Day (2017) BDRip от MegaPeer | Лицензия 1.46 GB ↑ 64 ↓ 16
2018-06-19 U Земля: Один потрясающий день / Earth: One Amazing Day (2017) BDRip | D 1.71 GB ↑ 249 ↓ 27

Отзывы
Зарегистрируйтесь чтобы добавить комментарий.
Обратная связь
Copyleft ©