↑↓Torrent.by
Поиск
Логин: Регистрация
Пароль: Восстановить пароль
Загрузка...

Земля, забытая временем / The Land that Time Forgot (1974) BDRip 720p от KORSAR | A

Скачать zemlya-zabytaya-vremenem-the-land-that-time-forgot-1974-bdrip-720p-ot-korsar-a.torrent
U Магнитная ссылка Размер: 5.20 GB Раздают: 66 Качают: 10 Добавлен: 2018-05-12 12:30:42
Земля, забытая временем / The Land that Time Forgot (1974) BDRip 720p от KORSAR | A

Название: Земля, забытая временем
Оригинальное название: The Land that Time Forgot
Год выпуска: 1974
Выпущено: Великобритания, США, Amicus Productions, Edgar Rice Burroughs Inc., Land Associates, Lion International
Жанр:  Фантастика, приключения, динозавры, экранизация
Режиссер: Кевин Коннор
В ролях: Даг МакКлёр, Джон МакИнери, Сьюзен Пенхалигон, Кит Баррон, Энтони Эйнли, Годфри Джеймс, Бобби Парр, Деклан Малхолланд, Колин Фаррелл, Бен Ховард

О фильме: Экранизация одноимённой новеллы Эдгара Берроуза.
В конце Второй мировой войны находят рукопись, содержащую удивительный рассказ. В 1916 году моряки британского грузового корабля, захваченного немецкой подводной лодкой, были отнесены течением к острову Капрона, где обнаружили мир динозавров, вулканов и первобытных людей. В рукописи описаны все приключения, которые им пришлось пережить…

Продолжительность: 01:31:21
Перевод: Авторский
Субтитры: Английские, немецкие
Навигация по главам: Есть

Файл
Качество: BDRip 720p
Видео: MPEG-4 AVC, 7149 Кбит/сек, 1280x692, 23,976 кадра/сек
Аудио #1: AC3, 2 ch, 384 Кбит/сек | Русский, авторский (одноголосый закадровый) Юрий Живов
Аудио #2: AC3, 2 ch, 224 Кбит/сек | Английский, оригинал
Аудио #3: AC3, 2 ch, 192 Кбит/сек | Немецкий, профессиональный (полное дублирование)

Релиз:


[+] Инфо-файл
x264 [info]: frame I:835   Avg QP:15.36  size:154732
x264 [info]: frame P:31497 Avg QP:18.31  size: 68162
x264 [info]: frame B:99089 Avg QP:19.79  size: 26487
----------------------------------------------------
Общее
Уникальный идентификатор                 : 230469126416191577887659505226210357044 (0xAD62BD3B0AF2856E8A25CF37B0E42F34)
Полное имя                               : Земля.забытая.временем.1974.BDRip.720p.KORSAR.mkv
Формат                                   : Matroska
Версия формата                           : Version 2
Размер файла                             : 5,20 Гбайт
Продолжительность                        : 1 ч. 31 м.
Общий поток                              : 8147 Кбит/сек
Дата кодирования                         : UTC 2018-05-09 11:31:26
Программа кодирования                    : mkvmerge v5.8.0 ('No Sleep / Pillow') built on Sep  2 2012 15:37:04
Библиотека кодирования                   : libebml v1.2.3 + libmatroska v1.3.0

Видео
Идентификатор                            : 1
Формат                                   : AVC
Формат/Информация                        : Advanced Video Codec
Профиль формата                          : High@L4.1
Настройки формата                        : CABAC / 9 Ref Frames
Параметр CABAC формата                   : Да
Параметр RefFrames формата               : 9 кадров
Идентификатор кодека                     : V_MPEG4/ISO/AVC
Продолжительность                        : 1 ч. 31 м.
Битрейт                                  : 7149 Кбит/сек
Ширина                                   : 1280 пикселей
Высота                                   : 692 пикселя
Соотношение сторон                       : 1,85:1
Режим частоты кадров                     : Постоянный
Частота кадров                           : 23,976 (24000/1001) кадра/сек
Цветовое пространство                    : YUV
Субдискретизация насыщенности            : 4:2:0
Битовая глубина                          : 8 бит
Тип развёртки                            : Прогрессивная
Бит/(Пиксели*Кадры)                      : 0.337
Размер потока                            : 4,46 Гбайт (86%)
Заголовок                                : RIP | MZMA
Библиотека кодирования                   : x264 core 152 r2851kMod ba24899
Настройки программы                      : cabac=1 / ref=9 / deblock=1:-2:-2 / analyse=0x3:0x113 / me=umh / subme=11 / psy=1 / fade_compensate=0.00 / psy_rd=1.00:0.00 / mixed_ref=1 / me_range=48 / chroma_me=1 / trellis=2 / 8x8dct=1 / cqm=0 / deadzone=21,11 / fast_pskip=0 / chroma_qp_offset=-2 / threads=6 / lookahead_threads=1 / sliced_threads=0 / nr=0 / decimate=0 / interlaced=0 / bluray_compat=0 / constrained_intra=0 / bframes=16 / b_pyramid=2 / b_adapt=2 / b_bias=0 / direct=3 / weightb=1 / open_gop=0 / weightp=2 / keyint=240 / keyint_min=23 / scenecut=40 / intra_refresh=0 / rc_lookahead=40 / rc=2pass / mbtree=0 / bitrate=7149 / ratetol=1.0 / qcomp=0.60 / qpmin=0 / qpmax=69 / qpstep=4 / cplxblur=20.0 / qblur=0.5 / vbv_maxrate=50000 / vbv_bufsize=62500 / nal_hrd=none / filler=0 / ip_ratio=1.40 / pb_ratio=1.30 / aq=3:0.90
Язык                                     : English
Default                                  : Да
Forced                                   : Нет
Цветовой диапазон                        : Limited
Основные цвета                           : BT.709
Характеристики трансфера                 : BT.709
Коэффициенты матрицы                     : BT.709

Аудио #1
Идентификатор                            : 2
Формат                                   : AC-3
Формат/Информация                        : Audio Coding 3
Идентификатор кодека                     : A_AC3
Продолжительность                        : 1 ч. 31 м.
Вид битрейта                             : Постоянный
Битрейт                                  : 384 Кбит/сек
Каналы                                   : 2 канала
Расположение каналов                     : Front: L R
Частота                                  : 48,0 КГц
Частота кадров                           : 31,250 кадров/сек (1536 SPF)
Битовая глубина                          : 16 бит
Метод сжатия                             : С потерями
Размер потока                            : 251 Мбайт (5%)
Заголовок                                : AVO | Ю. Живов
Язык                                     : Russian
По умолчанию                             : Да
Принудительно                            : Нет

Аудио #2
Идентификатор                            : 3
Формат                                   : AC-3
Формат/Информация                        : Audio Coding 3
Идентификатор кодека                     : A_AC3
Продолжительность                        : 1 ч. 31 м.
Вид битрейта                             : Постоянный
Битрейт                                  : 224 Кбит/сек
Каналы                                   : 2 канала
Расположение каналов                     : Front: L R
Частота                                  : 48,0 КГц
Частота кадров                           : 31,250 кадров/сек (1536 SPF)
Битовая глубина                          : 16 бит
Метод сжатия                             : С потерями
Размер потока                            : 146 Мбайт (3%)
Заголовок                                : Original
Язык                                     : English
По умолчанию                             : Нет
Принудительно                            : Нет

Аудио #3
Идентификатор                            : 4
Формат                                   : AC-3
Формат/Информация                        : Audio Coding 3
Идентификатор кодека                     : A_AC3
Продолжительность                        : 1 ч. 31 м.
Вид битрейта                             : Постоянный
Битрейт                                  : 384 Кбит/сек
Каналы                                   : 2 канала
Расположение каналов                     : Front: L R
Частота                                  : 48,0 КГц
Частота кадров                           : 31,250 кадров/сек (1536 SPF)
Битовая глубина                          : 16 бит
Метод сжатия                             : С потерями
Размер потока                            : 251 Мбайт (5%)
Заголовок                                : DUB
Язык                                     : German
SПо умолчанию                             : Нет
Принудительно                            : Нет

Текст #1
Идентификатор                            : 5
Формат                                   : UTF-8
Идентификатор кодека                     : S_TEXT/UTF8
Идентификатор кодека/Информация          : UTF-8 Plain Text
Заголовок                                : Full
Язык                                     : English
По умолчанию                             : Нет
Принудительно                            : Нет

Текст #2
Идентификатор                            : 6
Формат                                   : UTF-8
Идентификатор кодека                     : S_TEXT/UTF8
Идентификатор кодека/Информация          : UTF-8 Plain Text
Заголовок                                : SDH
Язык                                     : English
По умолчанию                             : Нет
Принудительно                            : Нет

Текст #3
Идентификатор                            : 7
Формат                                   : UTF-8
Идентификатор кодека                     : S_TEXT/UTF8
Идентификатор кодека/Информация          : UTF-8 Plain Text
Заголовок                                : zur englischen rede
Язык                                     : German
По умолчанию                             : Нет
Принудительно                            : Нет

Текст #4
Идентификатор                            : 8
Формат                                   : UTF-8
Идентификатор кодека                     : S_TEXT/UTF8
Идентификатор кодека/Информация          : UTF-8 Plain Text
Заголовок                                : Full
Язык                                     : German
По умолчанию                             : Нет
Принудительно                            : Нет

Меню
00:00:00.000                             : en:
00:04:59.882                             : en:
00:15:18.667                             : en:
00:18:49.044                             : en:
00:22:50.786                             : en:
00:27:51.586                             : en:
00:31:38.855                             : en:
00:39:31.535                             : en:
00:43:50.044                             : en:
00:53:21.364                             : en:
00:57:03.336                             : en:
01:03:14.040                             : en:
01:10:32.645                             : en:
01:18:31.665                             : en:
01:22:42.540                             : en:
01:30:31.134                             : en:



Скриншоты:
[+] Всего файлов в раздаче - 1:
Земля.забытая.временем.1974.BDRip.720p.KORSAR.mkv5.20 GB

Текущая раздача:
ДатаКомментарии    РазмерПиры
2018-05-12 U Земля, забытая временем / The Land that Time Forgot (1974) BDRip 720p от KORSAR | A 5.20 GB ↑ 66 ↓ 10

Показать еще раздачи по запросу земля:
2018-05-04 U Земля, забытая временем / The Land That Time Forgot (1975) BDRip от Koenig | A 1.45 GB ↑ 41 ↓ 12
2018-04-18 U Земля: Один потрясающий день / Earth: One Amazing Day (2017) BDRip 1080p | iTunes 8.20 GB ↑ 115 ↓ 53
2018-03-29 U Выжженная земля / Scorched Earth (2018) BDRip 1080p | HDrezka Studio 8.99 GB ↑ 79 ↓ 131
2018-03-18 U Выжженная земля / Scorched Earth (2018) BDRip от MegaPeer | L 745.51 MB ↑ 121 ↓ 35
2018-03-18 U Выжженная земля / Scorched Earth (2018) BDRip 720p | L 3.93 GB ↑ 74 ↓ 71
2018-03-18 U Выжженная земля / Scorched Earth (2018) BDRip 1080p | L 8.42 GB ↑ 124 ↓ 104
2018-03-17 U Выжженная земля / Scorched Earth (2018) BDRip от MegaPeer | L 1К1.42 GB ↑ 199 ↓ 109

Отзывы
Зарегистрируйтесь чтобы добавить комментарий.
Обратная связь
Copyleft ©