↑↓Torrent.by
Поиск
Логин: Регистрация
Пароль: Восстановить пароль
Загрузка...

Месть / Revenge (2017) WEBRip 720p | L1

Скачать mest-revenge-2017-webrip-720p-l1.torrent
U Магнитная ссылка Размер: 2.46 GB Раздают: 99 Качают: 31 Добавлен: 2018-05-13 07:13:17
Месть / Revenge (2017) WEBRip  720p | L1

Название: Месть
Оригинальное название: Revenge
Год выхода: 2017
Жанр: боевик, триллер
Режиссер: Корали Фаржеа
В ролях: Матильда Анна Ингрид Лутс, Кевин Дженссенс, Винсент Колумб, Гийом Бушед, Эвант Странгел

О фильме:
Молодая американка Дженифер проводит выходные с женатым французским бойфрендом в уединенном комфортабельном доме с бассейном. Внезапно раньше времени туда заявляются двое его друзей, с которыми он договорился поохотиться в уик-энд. Девушке стоило бы вести себя поскромнее в присутствии незнакомых мужчин, но желая разжечь страсть любовника, Дженифер слегка заигрывает с его другом.

Страна: Франция
Студия: Canal+ [fr]
Продолжительность: 01:48:29
Перевод: любительский одноголосный, закадровый [BadBajo]

Файл
Кодек: H.264
Качество: WEBRip  720p
Видео: AVC, 1280x528 (2.40:1), 23.976 fps ~ 2415 Kbps
Звук:
AC3, 48 KHz, 6 ch ~ 384 Kb/s (русский)
AC3, 48 KHz, 6 ch ~ 384 Kb/s (английский)
Субтитры: английские, английские неотключаемые (на фр. речь)

Семпл
[+] MI:

Общее
Уникальный идентификатор : 201517974608283781952982422816583371765 (0x979AF33DE27DA7ED841BE070DEB0CBF5)
Полное имя : Q:TorFRevenge.2017.720p.mkv
Формат : Matroska
Версия формата : Version 2
Размер файла : 2,46 Гбайт
Продолжительность : 1 ч. 48 м.
Режим общего битрейта : Переменный
Общий поток : 3248 Кбит/сек
Дата кодирования : UTC 2018-05-12 12:40:23
Программа кодирования : mkvmerge v5.4.0 ('Piper') built on Mar 10 2012 13:34:39
Библиотека кодирования : libebml v1.2.3 + libmatroska v1.3.0
DURATION : 01:43:52.183000000
NUMBER_OF_FRAMES : 461
NUMBER_OF_BYTES : 10900
_STATISTICS_WRITING_APP : mkvmerge v21.0.0 ('Tardigrades Will Inherit The Earth') 64-bit
_STATISTICS_WRITING_DATE_UTC : 2018-05-11 04:39:29
_STATISTICS_TAGS : BPS DURATION NUMBER_OF_FRAMES NUMBER_OF_BYTES
Attachment : Yes

Видео
Идентификатор : 1
Формат : AVC
Формат/Информация : Advanced Video Codec
Профиль формата : High@L3.1
Параметр CABAC формата : Да
Параметр ReFrames формата : 5 кадров
Идентификатор кодека : V_MPEG4/ISO/AVC
Продолжительность : 1 ч. 48 м.
Вид битрейта : Переменный
Битрейт : 2415 Кбит/сек
Максимальный битрейт : 4500 Кбит/сек
Ширина : 1280 пикселей
Высота : 528 пикселей
Соотношение сторон : 2,40:1
Соотношение сторон в оригинале : 2,40:1
Частота кадров : 23,976 кадра/сек
Цветовое пространство : YUV
Субдискретизация насыщенности : 4:2:0
Битовая глубина : 8 бит
Тип развёртки : Прогрессивная
Бит/(Пиксели*Кадры) : 0.149
Размер потока : 1,83 Гбайт (74%)
Язык : English
Default : Да
Forced : Нет
Основные цвета : BT.709-5, BT.1361, IEC 61966-2-4, SMPTE RP177
Характеристики трансфера : BT.709-5, BT.1361
Коэффициенты матрицы : BT.709-5, BT.1361, IEC 61966-2-4 709, SMPTE RP177

Аудио #1
Идентификатор : 2
Формат : AC-3
Формат/Информация : Audio Coding 3
Расширение режима : CM (complete main)
Идентификатор кодека : A_AC3
Продолжительность : 1 ч. 48 м.
Вид битрейта : Постоянный
Битрейт : 384 Кбит/сек
Каналы : 6 каналов
Расположение каналов : Front: L C R, Side: L R, LFE
Частота : 48,0 КГц
Битовая глубина : 16 бит
Метод сжатия : С потерями
Размер потока : 298 Мбайт (12%)
Заголовок : BadBajo
Язык : Russian
Default : Да
Forced : Нет

Аудио #2
Идентификатор : 3
Формат : AC-3
Формат/Информация : Audio Coding 3
Расширение режима : CM (complete main)
Идентификатор кодека : A_AC3
Продолжительность : 1 ч. 48 м.
Вид битрейта : Постоянный
Битрейт : 384 Кбит/сек
Каналы : 6 каналов
Расположение каналов : Front: L C R, Side: L R, LFE
Частота : 48,0 КГц
Битовая глубина : 16 бит
Метод сжатия : С потерями
Размер потока : 298 Мбайт (12%)
Язык : English
Default : Нет
Forced : Нет

Текст #1
Идентификатор : 4
Формат : UTF-8
Идентификатор кодека : S_TEXT/UTF8
Идентификатор кодека/Информация : UTF-8 Plain Text
Язык : English
Default : Нет
Forced : Нет

Текст #2
Идентификатор : 5
Формат : UTF-8
Идентификатор кодека : S_TEXT/UTF8
Идентификатор кодека/Информация : UTF-8 Plain Text
Заголовок : SDH
Язык : English
Default : Нет
Forced : Нет



Скриншоты:
[+] Всего файлов в раздаче - 1:
Revenge.2017.720p.mkv2.46 GB

Текущая раздача:
ДатаКомментарии    РазмерПиры
2018-05-13 U Месть / Revenge (2017) WEBRip 720p | L1 1 К 2.46 GB ↑ 99 ↓ 31

Показать еще раздачи по запросу месть:
2018-07-31 U Месть / Revenge (2017) BDRip от MegaPeer | HDrezka Studio 1.46 GB ↑ 38 ↓ 16
2018-07-31 U Месть / Revenge (2017) BDRip от MegaPeer | HDrezka Studio 745.35 MB ↑ 41 ↓ 12
2018-07-29 U Месть / Revenge (2017) BDRip 1080p | P, L1 1К11.85 GB ↑ 25 ↓ 11
2018-07-03 U Месть / Revenge (2017) BDRip от ExKinoRay | HDrezka Studio 1.45 GB ↑ 89 ↓ 44
2018-06-03 U Странствующая блудница: Месть / Die Rache der Wanderhure (2012) HDRip | P 1.46 GB ↑ 45 ↓ 13
2018-05-21 U Месть / Revenge (2017) WEB-DLRip от MegaPeer | HDrezka Studio 1.46 GB ↑ 240 ↓ 69
2018-05-20 U Месть / Revenge (2017) WEB-DL 1080p | HDrezka Studio 5.93 GB ↑ 138 ↓ 115

Отзывы
PAPA
Дробовик с оптическим прицелом? WTF?

Зарегистрируйтесь чтобы добавить комментарий.
Обратная связь
Copyleft ©