↑↓Torrent.by
Поиск
Логин: Регистрация
Пароль: Восстановить пароль
Загрузка...

Чёрная Пантера / Black Panther (2018) BDRip-AVC от Generalfilm | iTunes

Скачать chernaya-pantera-black-panther-2018-bdrip-avc-ot-generalfilm-itunes.torrent
U Магнитная ссылка Размер: 1.97 GB Раздают: 125 Качают: 25 Добавлен: 2018-05-13 07:13:38
Чёрная Пантера / Black Panther (2018) BDRip-AVC от Generalfilm | iTunes

Название: Чёрная Пантера
Оригинальное название: Black Panther
Год выпуска: 2018
Страна: США
Жанр: фантастика, боевик, приключения

Перевод: Дублированный [iTunes]
Субтитры: русские (Forced),
русские (Full),
русские (SDH),
Продолжительность: 02:14:44
Режиссер: Райан Куглер
В ролях: Чедвик Боузман (T'Challa / Black Panther), Майкл Б. Джордан (Erik Killmonger), Лупита Нионго (Nakia), Данай Джекесай Гурира (Okoye), Мартин Фриман (Everett K. Ross), Дэниэл Калуя (W'Kabi), Летишиа Райт (Shuri), Уинстон Дьюк (M'Baku), Стерлинг К. Браун (N'Jobu), Анджела Бассетт (Ramonda), Форест Уитакер (Zuri), Энди Серкис (Ulysses Klaue)

Описание:
С первого взгляда можно решить, что Ваканда - обычная территория дикой Африки, но это не так. Здесь, в недрах пустынных земель, скрываются залежи уникального металла, способного поглощать вибрацию. Многие пытались добраться до него, разоряя всё на своём пути и принося смерть аборигенам, но каждый раз таинственный дух саванны - Чёрная Пантера - вставал на защиту угнетённых.

MPAA: PG-13 - Детям до 13 лет просмотр не желателен
Качество: BDRip-AVC
Формат: MKV
Видео: AVC, 1024x428 (2.40:1), 1706 kbps, 23,976 fps, 0,162 bpp
Аудио: русский / AC3 / 5.1 / 48 kHz / 384 kbps / ||
Навигация по главам: есть

Релиз:
[+] ОтчетМедиаИнфо

General
Unique ID                                : 241303538470521280345960314589510921618 (0xB5895EFCA77ADF179F31FE2F2A306D92)
Complete name                            : E:запись с твBlack.Panther.2018.BDRip-AVC.Rip.by.White Smoke.R.G.Generalfilm.mkv
Format                                   : Matroska
Format version                           : Version 4 / Version 2
File size                                : 1.97 GiB
Duration                                 : 2 h 14 min
Overall bit rate                         : 2 090 kb/s
Movie name                               : Black.Panther.2018.BDRip-AVC.Rip.by.White Smoke.R.G.Generalfilm.mkv
Encoded date                             : UTC 2018-05-12 12:17:18
Writing application                      : mkvmerge v6.8.0 ('Theme for Great Cities') 64bit built on Mar  2 2014 21:34:26
Writing library                          : libebml v1.3.0 + libmatroska v1.4.1

Video
ID                                       : 1
Format                                   : AVC
Format/Info                              : Advanced Video Codec
Format profile                           : High@L4.1
Format settings, CABAC                   : Yes
Format settings, ReFrames                : 10 frames
Codec ID                                 : V_MPEG4/ISO/AVC
Duration                                 : 2 h 14 min
Bit rate                                 : 1 706 kb/s
Width                                    : 1 024 pixels
Height                                   : 428 pixels
Display aspect ratio                     : 2.40:1
Frame rate mode                          : Constant
Frame rate                               : 23.976 (24000/1001) FPS
Color space                              : YUV
Chroma subsampling                       : 4:2:0
Bit depth                                : 8 bits
Scan type                                : Progressive
Bits/(Pixel*Frame)                       : 0.162
Stream size                              : 1.57 GiB (80%)
Writing library                          : x264 core 148 r2638 7599210
Encoding settings                        : cabac=1 / ref=10 / deblock=1:-2:-1 / analyse=0x3:0x113 / me=umh / subme=11 / psy=1 / psy_rd=0.00:0.15 / mixed_ref=1 / me_range=32 / chroma_me=1 / trellis=2 / 8x8dct=1 / cqm=0 / deadzone=21,11 / fast_pskip=0 / chroma_qp_offset=-3 / threads=6 / lookahead_threads=1 / sliced_threads=0 / nr=0 / decimate=0 / interlaced=0 / bluray_compat=0 / constrained_intra=0 / bframes=10 / b_pyramid=2 / b_adapt=2 / b_bias=0 / direct=1 / weightb=1 / open_gop=0 / weightp=2 / keyint=240 / keyint_min=23 / scenecut=40 / intra_refresh=0 / rc_lookahead=40 / rc=2pass / mbtree=1 / bitrate=1706 / ratetol=1.0 / qcomp=0.65 / qpmin=0 / qpmax=69 / qpstep=4 / cplxblur=20.0 / qblur=0.5 / vbv_maxrate=50000 / vbv_bufsize=65500 / nal_hrd=none / filler=0 / ip_ratio=1.40 / aq=1:1.00
Language                                 : English
Default                                  : Yes
Forced                                   : No

Audio
ID                                       : 2
Format                                   : AC-3
Format/Info                              : Audio Coding 3
Mode extension                           : CM (complete main)
Format settings, Endianness              : Big
Codec ID                                 : A_AC3
Duration                                 : 2 h 14 min
Bit rate mode                            : Constant
Bit rate                                 : 384 kb/s
Channel(s)                               : 6 channels
Channel positions                        : Front: L C R, Side: L R, LFE
Sampling rate                            : 48.0 kHz
Frame rate                               : 31.250 FPS (1536 spf)
Compression mode                         : Lossy
Stream size                              : 370 MiB (18%)
Title                                    : iTunes
Language                                 : Russian
Default                                  : Yes
Forced                                   : Yes

Text #1
ID                                       : 3
Format                                   : UTF-8
Codec ID                                 : S_TEXT/UTF8
Codec ID/Info                            : UTF-8 Plain Text
Title                                    : Forced
Language                                 : Russian
Default                                  : Yes
Forced                                   : Yes

Text #2
ID                                       : 4
Format                                   : UTF-8
Codec ID                                 : S_TEXT/UTF8
Codec ID/Info                            : UTF-8 Plain Text
Title                                    : Full
Language                                 : Russian
Default                                  : No
Forced                                   : No

Text #3
ID                                       : 5
Format                                   : UTF-8
Codec ID                                 : S_TEXT/UTF8
Codec ID/Info                            : UTF-8 Plain Text
Title                                    : SDH
Language                                 : Russian
Default                                  : No
Forced                                   : No

Menu
00:00:00.000                             : en:00:00:00.000
00:06:56.291                             : en:00:06:56.291
00:12:02.805                             : en:00:12:02.805
00:19:12.360                             : en:00:19:12.360
00:28:32.961                             : en:00:28:32.961
00:33:11.698                             : en:00:33:11.698
00:40:57.497                             : en:00:40:57.497
00:48:34.036                             : en:00:48:34.036
00:53:46.098                             : en:00:53:46.098
01:01:57.339                             : en:01:01:57.339
01:08:33.026                             : en:01:08:33.026
01:16:46.769                             : en:01:16:46.769
01:22:24.022                             : en:01:22:24.022
01:31:21.434                             : en:01:31:21.434
01:41:15.361                             : en:01:41:15.361
01:50:56.483                             : en:01:50:56.483
01:59:16.941                             : en:01:59:16.941
02:02:43.648                             : en:02:02:43.648




Скриншоты:
[+] Всего файлов в раздаче - 1:
Black.Panther.2018.BDRip-AVC.Rip.by.White Smoke.R.G.Generalfilm.mkv1.97 GB

Отзывы
Зарегистрируйтесь чтобы добавить комментарий.
Обратная связь
Copyleft ©