↑↓Torrent.by
Поиск
Логин: Регистрация
Пароль: Восстановить пароль
Загрузка...

Дерево из тел / The Body Tree (2017) WEBRip | L2

Скачать derevo-iz-tel-the-body-tree-2017-webrip-l2.torrent
U Магнитная ссылка Размер: 1.23 GB Раздают: 46 Качают: 22 Добавлен: 2018-05-13 07:14:26
Дерево из тел / The Body Tree (2017) WEBRip | L2

Название: Дерево из тел
Оригинальное название: The Body Tree
Год выхода: 2017
Жанр: Триллер
Режиссер: Томас Данн
В ролях: Эрика Дашер, Эмма Дюмон, Кайл Джонс, Иванна Сахно, Джин Фарбер, Коста Ронин, Сэм Хэмилл, Мэйсон Д. Дэвис, Алексей Воробьёв, Марк Борковски и другие
О фильме:
Когда группа американцев отправляется в Сибирь, чтобы почтить память своей убитой подруги, они раскрывают заговор, который угрожает их жизням.

Страна: Россия, Испания, США, FishCorb Films, Invada Film
Продолжительность: 01:37:37
Перевод: Любительский (двухголосый закадровый) | HiWay Grope

Файл
Кодек: XviD
Качество: WEBRip
Видео: 720x304, 29.970 fps, ~1598 kbps, 0.24 bit/pixel
Звук:
Аудио rus: AC3, 48 kHz, 2 ch, 192 Kbps
Субтитры: отсутствуют

Реклама: присутствует

Семпл

Релиз от: HiWay Grope


[+] MediaInfo:

General
Complete name                            : E:The.Body.Tree.2017.WEBRip.HiWayGropeThe.Body.Tree.2017.WEBRip.HiWayGrope.avi
Format                                   : AVI
Format/Info                              : Audio Video Interleave
File size                                : 1.23 GiB
Duration                                 : 1h 37mn
Overall bit rate                         : 1 802 Kbps
Writing application                      : VirtualDubMod 1.5.10.3 (build 2550/release)
Writing library                          : VirtualDubMod build 2550/release

Video
ID                                       : 0
Format                                   : MPEG-4 Visual
Format profile                           : Advanced Simple@L5
Format settings, BVOP                    : 1
Format settings, QPel                    : No
Format settings, GMC                     : No warppoints
Format settings, Matrix                  : Default (MPEG)
Codec ID                                 : XVID
Codec ID/Hint                            : XviD
Duration                                 : 1h 37mn
Bit rate                                 : 1 598 Kbps
Width                                    : 720 pixels
Height                                   : 304 pixels
Display aspect ratio                     : 2.35:1
Frame rate                               : 29.970 (29970/1000) fps
Color space                              : YUV
Chroma subsampling                       : 4:2:0
Bit depth                                : 8 bits
Scan type                                : Progressive
Compression mode                         : Lossy
Bits/(Pixel*Frame)                       : 0.244
Stream size                              : 1.09 GiB (89%)
Writing library                          : XviD 73

Audio
ID                                       : 1
Format                                   : AC-3
Format/Info                              : Audio Coding 3
Mode extension                           : CM (complete main)
Format settings, Endianness              : Big
Codec ID                                 : 2000
Duration                                 : 1h 37mn
Bit rate mode                            : Constant
Bit rate                                 : 192 Kbps
Channel(s)                               : 2 channels
Channel positions                        : Front: L R
Sampling rate                            : 48.0 KHz
Frame rate                               : 31.250 fps (1536 spf)
Compression mode                         : Lossy
Stream size                              : 134 MiB (11%)
Alignment                                : Split accross interleaves
Interleave, duration                     : 33 ms (1.00 video frame)
Interleave, preload duration             : 500 ms




Скриншоты:
[+] Всего файлов в раздаче - 1:
The.Body.Tree.2017.WEBRip.HiWayGrope.avi1.23 GB

Текущая раздача:
ДатаКомментарии    РазмерПиры
2018-05-13 U Дерево из тел / The Body Tree (2017) WEBRip | L2 1.23 GB ↑ 46 ↓ 22

Похожие раздачи по запросу - дерево:
2016-04-23 U Вишневое дерево / Cherry Tree (2015) HDRip | L2 1.37 GB ↑ 64 ↓ 96
2016-04-23 U Вишневое дерево / Cherry Tree (2015) BDRip 720p | L2 1К4.24 GB ↑ 96 ↓ 89

Отзывы
Зарегистрируйтесь чтобы добавить комментарий.
Обратная связь
Copyleft ©