↑↓Torrent.by
Поиск
Логин: Регистрация
Пароль: Восстановить пароль
Загрузка...

Большая жратва / Waiting... (2005) HDRip-AVC | P

Скачать bolshaya-zhratva-waiting-2005-hdrip-avc-p.torrent
U Магнитная ссылка Размер: 1.87 GB Раздают: 100 Качают: 18 Добавлен: 2018-05-13 17:17:24
Большая жратва / Waiting... (2005) HDRip-AVC | P

Название: Большая жратва
Оригинальное название: Waiting...
Год выхода: 2005
Жанр: Комедия
Режиссер: Роб МакКиттрик
В ролях: Райан Рейнолдс, Анна Фарис, Джастин Лонг, Дэвид Кочнер, Луис Гусман, Чи МакБрайд

О фильме: Дин работает официантом в крупном ресторане уже четыре года. Он ни разу не задавался вопросом о том, насколько хорошо он устроился, пока не узнал, что его однокашник все эти годы делал сногсшибательную карьеру в крупной корпорации. Поэтому, когда появляется стажер Митч, Дин начинает его обучение не только со знакомства с многочисленным и сумасбродным коллективом, но и с того, как отомстить обеспеченным посетителям ресторана за классовое неравенство.

Производство: США, Eden Rock Media, Element Films
Продолжительность: 01:33:57
Перевод: Профессиональный (многоголосый, закадровый) | Tycoon

Качество: HDRip-AVC (Waiting.2005.1080p.Rus.mkv)
Видео: 1024x576(16:9), 2400 Kbps, 23,98 fps
Звук: AC3, 448 Kbps, 48.0 KHz, 6 ch
[+] MediaInfo
General
Unique ID                           : 184246898567901855231608913118423910173 (0x8A9CA97303D89D3496C12D45DB57871D)
Complete name                       : D:uTorrentWaiting.2005.HDRip.rutor.mkv
Format                              : Matroska
Format version                      : Version 2
File size                           : 1.87 GiB
Duration                            : 1h 33mn
Overall bit rate                    : 2 849 Kbps
Encoded date                        : UTC 2018-05-13 00:37:33
Writing application                 : mkvmerge v6.9.1 ('Blue Panther') 32bit built on Apr 18 2014 18:15:44
Writing library                     : libebml v1.3.0 + libmatroska v1.4.1

Video
ID                                  : 1
Format                              : AVC
Format/Info                         : Advanced Video Codec
Format profile                      : High@L4.1
Format settings, CABAC              : Yes
Format settings, ReFrames           : 8 frames
Codec ID                            : V_MPEG4/ISO/AVC
Duration                            : 1h 33mn
Bit rate                            : 2 400 Kbps
Width                               : 1 024 pixels
Height                              : 576 pixels
Display aspect ratio                : 16:9
Frame rate                          : 23.976 fps
Color space                         : YUV
Chroma subsampling                  : 4:2:0
Bit depth                           : 8 bits
Scan type                           : Progressive
Bits/(Pixel*Frame)                  : 0.170
Stream size                         : 1.54 GiB (82%)
Writing library                     : x264 core 148 r2638 7599210
Encoding settings                   : cabac=1 / ref=8 / deblock=1:-1:-1 / analyse=0x3:0x133 / me=umh / subme=7 / psy=1 / psy_rd=1.00:0.10 / mixed_ref=1 / me_range=16 / chroma_me=1 / trellis=2 / 8x8dct=1 / cqm=0 / deadzone=21,11 / fast_pskip=0 / chroma_qp_offset=-3 / threads=6 / lookahead_threads=1 / sliced_threads=0 / nr=0 / decimate=1 / interlaced=0 / bluray_compat=0 / constrained_intra=0 / bframes=3 / b_pyramid=2 / b_adapt=2 / b_bias=0 / direct=3 / weightb=1 / open_gop=0 / weightp=2 / keyint=250 / keyint_min=23 / scenecut=40 / intra_refresh=0 / rc_lookahead=50 / rc=2pass / mbtree=1 / bitrate=2400 / ratetol=1.0 / qcomp=0.60 / qpmin=0 / qpmax=69 / qpstep=4 / cplxblur=20.0 / qblur=0.5 / ip_ratio=1.40 / aq=1:1.00
Default                             : Yes
Forced                              : No

Audio
ID                                  : 2
Format                              : AC-3
Format/Info                         : Audio Coding 3
Mode extension                      : CM (complete main)
Format settings, Endianness         : Big
Codec ID                            : A_AC3
Duration                            : 1h 33mn
Bit rate mode                       : Constant
Bit rate                            : 448 Kbps
Channel(s)                          : 6 channels
Channel positions                   : Front: L C R, Side: L R, LFE
Sampling rate                       : 48.0 KHz
Bit depth                           : 16 bits
Compression mode                    : Lossy
Stream size                         : 301 MiB (16%)
Default                             : Yes
Forced                              : No



Скриншоты:
[+] Всего файлов в раздаче - 1:
Waiting.2005.HDRip.rutor.mkv1.87 GB

Текущая раздача:
ДатаКомментарии    РазмерПиры
2018-05-13 U Большая жратва / Waiting... (2005) HDRip-AVC | P 1.87 GB ↑ 100 ↓ 18

Показать еще раздачи по запросу большая:
2018-08-11 U Серия книг - «Моя большая книга» [107 томов] (2018) FB2 1.12 GB ↑ 44 ↓ 27
2018-08-04 U Серия книг - «Моя большая книга» [105 томов] (2018) FB2 1.08 GB ↑ 85 ↓ 35
2018-08-01 U Серия книг - «Большая фантастика» [21 книга] (2016-2018) FB2 51.32 MB ↑ 164 ↓ 26
2018-07-29 U Серия книг - «Моя большая книга» [104 тома] (2018) FB2 1.06 GB ↑ 70 ↓ 21
2018-07-25 U Большая игра / Molly's Game (2017) BDRip 1080p от HELLYWOOD | RUS-Transfer | Лицензия 8.63 GB ↑ 62 ↓ 35
2018-07-22 U Серия книг - «Моя большая книга» [101 том] (2018) FB2 1.04 GB ↑ 72 ↓ 25
2018-07-15 U Большая легенда / Big Legend (2018) WEB-DLRip-AVC от OlLanDGroup | HDRezka Studio 1.46 GB ↑ 89 ↓ 57

Отзывы
Зарегистрируйтесь чтобы добавить комментарий.
Обратная связь
Copyleft ©