↑↓Torrent.by
Поиск
Логин: Регистрация
Пароль: Восстановить пароль
Загрузка...

Делириум / Delirium (2018) HDRip 1080p | GreenРай Studio

Скачать delirium-2018-hdrip-1080p-greenray-studio.torrent
U Магнитная ссылка Размер: 6.26 GB Раздают: 171 Качают: 38 Добавлен: 2018-05-13 17:17:57
Делириум / Delirium (2018) HDRip 1080p | GreenРай Studio

Год выхода: 2018
Наименование: Делириум
Оригинальное наименование: Delirium
Произведено: США
Жанр:  ужасы, триллер
Режиссер постановщик: Джонни Мартин

В главных ролях: Майк К. Мэннинг, Гриффин Фриман, Райан Пинкстон, Аугуст Роудс, Сет Остин, Линдсэй Бушмен, Каллэн Буркхарт, Тереза Наварро, Йен Бамберг

О фильме: Группа студентов устраивает однокурснику процедуру посвящения - парень должен с видеокамерой пробраться на закрытую территорию, где стоит заброшенный дом. Несколько лет назад там произошло массовое убийство, но безбашенных студентов это не останавливает. Когда приятель долго не возвращается, ребята решают последовать за ним и находят его камеру на крыльце дома.

Файл
Качество: HDRip 1080p
Видео данные: MKV, 1920x1080 (16:9), 23.976 fps, 10000 Кбит/с
Аудио данные: AC3, 2 ch, 640 Кбит/с
Перевод: Любительский многоголосый (GreenРай Studio)
Продолжительность: 01:25:05

Внимание, имеется  видео и аудио реклама от спонсора показа

Релиз:


[+] Медиаинфо
General
Unique ID                                : 220883507218610358011922703125542218295 (0xA62C9DB73EEF39E4994D5C4A16222A37)
Complete name                            : D:ГРИНРАЙDelirium.2018.P.BDRip.1080p.mkv
Format                                   : Matroska
Format version                           : Version 4 / Version 2
File size                                : 6.26 GiB
Duration                                 : 1 h 25 min
Overall bit rate mode                    : Constant
Overall bit rate                         : 10.5 Mb/s
Movie name                               : The Incredible Story of the Giant Pear (2017)
Encoded date                             : UTC 2018-05-12 03:46:10
Writing application                      : mkvmerge v8.3.0 ('Over the Horizon') 64bit
Writing library                          : libebml v1.3.1 + libmatroska v1.4.2

Video
ID                                       : 1
Format                                   : AVC
Format/Info                              : Advanced Video Codec
Format profile                           : Main@L4
Format settings                          : CABAC / 3 Ref Frames
Format settings, CABAC                   : Yes
Format settings, RefFrames               : 3 frames
Format settings, GOP                     : M=1, N=15
Codec ID                                 : V_MPEG4/ISO/AVC
Duration                                 : 1 h 25 min
Bit rate mode                            : Constant
Bit rate                                 : 10 000 kb/s
Width                                    : 1 920 pixels
Height                                   : 1 080 pixels
Display aspect ratio                     : 16:9
Frame rate mode                          : Constant
Frame rate                               : 23.976 (24000/1001) FPS
Standard                                 : NTSC
Color space                              : YUV
Chroma subsampling                       : 4:2:0
Bit depth                                : 8 bits
Scan type                                : Progressive
Bits/(Pixel*Frame)                       : 0.201
Stream size                              : 5.88 GiB (94%)
Language                                 : English
Default                                  : Yes
Forced                                   : No
Color range                              : Limited

Audio
ID                                       : 2
Format                                   : AC-3
Format/Info                              : Audio Coding 3
Codec ID                                 : A_AC3
Duration                                 : 1 h 25 min
Bit rate mode                            : Constant
Bit rate                                 : 640 kb/s
Channel(s)                               : 2 channels
Channel positions                        : Front: L R
Sampling rate                            : 48.0 kHz
Frame rate                               : 31.250 FPS (1536 SPF)
Bit depth                                : 16 bits
Compression mode                         : Lossy
Stream size                              : 389 MiB (6%)
Service kind                             : Complete Main
Default                                  : Yes
Forced                                   : No



Скриншоты:
[+] Всего файлов в раздаче - 1:
Delirium.2018.P.BDRip.1080p.mkv6.26 GB

Текущая раздача:
ДатаКомментарии    РазмерПиры
2018-05-13 U Делириум / Delirium (2018) HDRip 1080p | GreenРай Studio 6.26 GB ↑ 171 ↓ 38

Похожие раздачи по запросу - делириум:
2018-05-13 U Делириум / Delirium (2018) HDRip | GreenРай Studio 1.37 GB ↑ 103 ↓ 42
2018-02-22 U Делириум / Delirium (2018) WEB-DLRip 720p | GreenРай Studio 2.57 GB ↑ 50 ↓ 15
2018-02-21 U Делириум / Delirium (2018) WEB-DLRip | GreenРай Studio 1.37 GB ↑ 90 ↓ 41

Отзывы
Зарегистрируйтесь чтобы добавить комментарий.
Обратная связь
Copyleft ©