↑↓Torrent.by
Поиск
Логин: Регистрация
Пароль: Восстановить пароль
Загрузка...

Красный воробей / Red Sparrow (2018) BDRip-AVC от ExKinoRay | D, P | Лицензия

Скачать krasnyy-vorobey-red-sparrow-2018-bdrip-avc-ot-exkinoray-d-p-licenziya.torrent
U Магнитная ссылка Размер: 2.86 GB Раздают: 59 Качают: 22 Добавлен: 2018-05-14 06:34:03
Красный воробей / Red Sparrow (2018) BDRip-AVC от ExKinoRay | D, P | Лицензия

Информация о фильме
Название: Красный воробей
Оригинальное название: Red Sparrow
Год выхода: 2018
Жанр: Триллер, детектив
Режиссер: Френсис Лоуренс
В ролях: Дженнифер Лоуренс, Джоэл Эдгертон, Маттиас Шонартс, Шарлотта Рэмплинг, Мэри-Луиз Паркер, Киран Хайндс, Джоэли Ричардсон, Билл Кэмп, Джереми Айронс, Текла Рютен

О фильме:
После вынужденного окончания карьеры из-за профессиональной травмы Доминика Егорова и ее мать сталкиваются с мрачным и неопределенным будущим. Героиня соглашается стать рекрутом в Школе Воробьев, секретной службе, которая обучает уникальных молодых людей использовать свое тело и ум в качестве опаснейшего оружия. После долгого садистского обучения девушка превращается в самого опасного Воробья за всю историю секретной службы. Теперь бывшая балерина должна примирить в себе человека, которым она была, и силу, которой она овладела, со своей собственной жизнью и жизнью всех, кто ей дорог. В том числе, американского агента ЦРУ, пытающегося убедить ее, что он единственный человек, которому она может доверять.

Страна: США
Студия: Chernin Entertainment
Продолжительность: 02:20:13
Перевод: Дублированный | Лицензия, Профессиональный многоголосый | HDRezka Studio

Формат: MKV
Качество: BDRip-AVC
Видео: MPEG-4 AVC, 1024х426 (2.40:1), 23.976 fps, 1380 Kbps, 0.132 bit/pixel
Аудио #01: 48 kHz, AC3, 5.1, 448 Kbps | Лицензия| RUS |
Аудио #02: 48 kHz, AC3, 2.0, 192 Kbps | HDRezka Studio | RUS |
Аудио #03: 48 kHz, AC3, 5.1, 448 Kbps | Лицензия | UKR |
Аудио #04: 48 kHz, AC3, 5.1, 448 Kbps | Оригинал |  ENG |
Субтитры: Русские (2xFull), английские

Релиз:

Автор релиза:
[+] MI


x264 [info]: frame I:52    Avg QP:15.19  size: 42800
x264 [info]: frame P:466   Avg QP:17.84  size: 13124
x264 [info]: frame B:1998  Avg QP:19.99  size:  2730
---------------------------------------------------------

General
Unique ID                                : 189115591332259844466127232057445962533 (0x8E4656891DCABFCE83FAB7C102A3D325)
Complete name                            : D:Red.Sparrow.2018.BDRip.AVC.ExKinoRay.mkv
Format                                   : Matroska
Format version                           : Version 2
File size                                : 2.86 GiB
Duration                                 : 2 h 20 min
Overall bit rate                         : 2 916 kb/s
Movie name                               : Red Sparrow 2018 from ExKinoRay
Encoded date                             : UTC 2018-05-13 12:04:57
Writing application                      : mkvmerge v5.6.0 ('Kenya Kane') built on May 27 2012 16:44:04
Writing library                          : libebml v1.2.3 + libmatroska v1.3.0

Video
ID                                       : 1
Format                                   : AVC
Format/Info                              : Advanced Video Codec
Format profile                           : High@L4.1
Format settings, CABAC                   : Yes
Format settings, ReFrames                : 12 frames
Codec ID                                 : V_MPEG4/ISO/AVC
Duration                                 : 2 h 20 min
Bit rate                                 : 1 380 kb/s
Width                                    : 1 024 pixels
Height                                   : 426 pixels
Display aspect ratio                     : 2.40:1
Frame rate mode                          : Constant
Frame rate                               : 23.976 (23976/1000) FPS
Color space                              : YUV
Chroma subsampling                       : 4:2:0
Bit depth                                : 8 bits
Scan type                                : Progressive
Bits/(Pixel*Frame)                       : 0.132
Stream size                              : 1.29 GiB (45%)
Writing library                          : x264 core 152 r2851 ba24899
Encoding settings                        : cabac=1 / ref=12 / deblock=1:-3:-3 / analyse=0x3:0x113 / me=umh / subme=11 / psy=1 / psy_rd=1.00:0.05 / mixed_ref=1 / me_range=32 / chroma_me=1 / trellis=2 / 8x8dct=1 / cqm=0 / deadzone=21,11 / fast_pskip=0 / chroma_qp_offset=-3 / threads=12 / lookahead_threads=3 / sliced_threads=0 / nr=0 / decimate=0 / interlaced=0 / bluray_compat=0 / constrained_intra=0 / bframes=14 / b_pyramid=2 / b_adapt=2 / b_bias=0 / direct=3 / weightb=1 / open_gop=0 / weightp=2 / keyint=240 / keyint_min=23 / scenecut=40 / intra_refresh=0 / rc_lookahead=40 / rc=2pass / mbtree=0 / bitrate=1380 / ratetol=1.0 / qcomp=0.70 / qpmin=0 / qpmax=51 / qpstep=4 / cplxblur=20.0 / qblur=0.5 / vbv_maxrate=50000 / vbv_bufsize=62500 / nal_hrd=none / filler=0 / ip_ratio=1.40 / pb_ratio=1.30 / aq=3:0.90
Language                                 : English
Default                                  : Yes
Forced                                   : No
Color range                              : Limited
Color primaries                          : BT.709
Transfer characteristics                 : BT.709
Matrix coefficients                      : BT.709

Audio #1
ID                                       : 2
Format                                   : AC-3
Format/Info                              : Audio Coding 3
Mode extension                           : CM (complete main)
Format settings, Endianness              : Big
Codec ID                                 : A_AC3
Duration                                 : 2 h 20 min
Bit rate mode                            : Constant
Bit rate                                 : 448 kb/s
Channel(s)                               : 6 channels
Channel positions                        : Front: L C R, Side: L R, LFE
Sampling rate                            : 48.0 kHz
Frame rate                               : 31.250 FPS (1536 spf)
Compression mode                         : Lossy
Stream size                              : 449 MiB (15%)
Title                                    : Dub [Blu-Ray]
Language                                 : Russian
Default                                  : No
Forced                                   : No

Audio #2
ID                                       : 3
Format                                   : AC-3
Format/Info                              : Audio Coding 3
Mode extension                           : CM (complete main)
Format settings, Endianness              : Big
Codec ID                                 : A_AC3
Duration                                 : 2 h 20 min
Bit rate mode                            : Constant
Bit rate                                 : 192 kb/s
Channel(s)                               : 2 channels
Channel positions                        : Front: L R
Sampling rate                            : 48.0 kHz
Frame rate                               : 31.250 FPS (1536 spf)
Compression mode                         : Lossy
Stream size                              : 193 MiB (7%)
Title                                    : MVO
Language                                 : Russian
Default                                  : No
Forced                                   : No

Audio #3
ID                                       : 4
Format                                   : AC-3
Format/Info                              : Audio Coding 3
Mode extension                           : CM (complete main)
Format settings, Endianness              : Big
Codec ID                                 : A_AC3
Duration                                 : 2 h 20 min
Bit rate mode                            : Constant
Bit rate                                 : 448 kb/s
Channel(s)                               : 6 channels
Channel positions                        : Front: L C R, Side: L R, LFE
Sampling rate                            : 48.0 kHz
Frame rate                               : 31.250 FPS (1536 spf)
Compression mode                         : Lossy
Stream size                              : 449 MiB (15%)
Title                                    : Dub
Language                                 : Ukrainian
Default                                  : No
Forced                                   : No

Audio #4
ID                                       : 5
Format                                   : AC-3
Format/Info                              : Audio Coding 3
Mode extension                           : CM (complete main)
Format settings, Endianness              : Big
Codec ID                                 : A_AC3
Duration                                 : 2 h 20 min
Bit rate mode                            : Constant
Bit rate                                 : 448 kb/s
Channel(s)                               : 6 channels
Channel positions                        : Front: L C R, Side: L R, LFE
Sampling rate                            : 48.0 kHz
Frame rate                               : 31.250 FPS (1536 spf)
Compression mode                         : Lossy
Stream size                              : 449 MiB (15%)
Language                                 : English
Default                                  : No
Forced                                   : No

Text #1
ID                                       : 6
Format                                   : UTF-8
Codec ID                                 : S_TEXT/UTF8
Codec ID/Info                            : UTF-8 Plain Text
Title                                    : Full [License]
Language                                 : Russian
Default                                  : No
Forced                                   : No

Text #2
ID                                       : 7
Format                                   : UTF-8
Codec ID                                 : S_TEXT/UTF8
Codec ID/Info                            : UTF-8 Plain Text
Title                                    : Full
Language                                 : Russian
Default                                  : No
Forced                                   : No

Text #3
ID                                       : 8
Format                                   : UTF-8
Codec ID                                 : S_TEXT/UTF8
Codec ID/Info                            : UTF-8 Plain Text
Title                                    : Full
Language                                 : English
Default                                  : No
Forced                                   : No

Text #4
ID                                       : 9
Format                                   : UTF-8
Codec ID                                 : S_TEXT/UTF8
Codec ID/Info                            : UTF-8 Plain Text
Title                                    : SDH
Language                                 : English
Default                                  : No
Forced                                   : No

Text #5
ID                                       : 10
Format                                   : UTF-8
Codec ID                                 : S_TEXT/UTF8
Codec ID/Info                            : UTF-8 Plain Text
Title                                    : SDH Colored
Language                                 : English
Default                                  : No
Forced                                   : No

Menu
00:00:00.000                             : en:00:00:00.000
00:08:00.105                             : en:00:08:00.105
00:11:31.983                             : en:00:11:31.983
00:16:57.183                             : en:00:16:57.183
00:21:09.643                             : en:00:21:09.643
00:27:21.265                             : en:00:27:21.265
00:33:03.356                             : en:00:33:03.356
00:38:09.245                             : en:00:38:09.245
00:42:29.130                             : en:00:42:29.130
00:46:41.799                             : en:00:46:41.799
00:54:14.334                             : en:00:54:14.334
00:58:45.480                             : en:00:58:45.480
01:04:55.266                             : en:01:04:55.266
01:10:26.139                             : en:01:10:26.139
01:16:28.250                             : en:01:16:28.250
01:26:44.699                             : en:01:26:44.699
01:32:06.938                             : en:01:32:06.938
01:36:22.443                             : en:01:36:22.443
01:41:53.149                             : en:01:41:53.149
01:49:48.415                             : en:01:49:48.415
01:53:45.610                             : en:01:53:45.610
01:58:52.083                             : en:01:58:52.083
02:07:20.132                             : en:02:07:20.132
02:13:40.095                             : en:02:13:40.095




Скриншоты:
[+] Всего файлов в раздаче - 1:
Red.Sparrow.2018.BDRip.AVC.ExKinoRay.mkv2.86 GB

Текущая раздача:
ДатаКомментарии    РазмерПиры
2018-05-14 U Красный воробей / Red Sparrow (2018) BDRip-AVC от ExKinoRay | D, P | Лицензия 2.86 GB ↑ 59 ↓ 22

Показать еще раздачи по запросу красный:
2018-05-17 U Красный воробей / Red Sparrow (2018) BDRip от HQ-ViDEO | Лицензия 2.18 GB ↑ 47 ↓ 20
2018-05-16 U Красный залив / Red Billabong (2016) BDRip 1080p | L1 9.33 GB ↑ 40 ↓ 23
2018-05-15 U Красный воробей / Red Sparrow (2018) BDRip-HEVC 1080p | 60 fps | Лицензия 5.35 GB ↑ 79 ↓ 57
2018-05-14 U Красный залив / Red Billabong (2016) WEBRip | L1 1.33 GB ↑ 282 ↓ 57
2018-05-14 U Красный воробей / Red Sparrow (2018) BDRip от ExKinoRay | Лицензия 2.18 GB ↑ 81 ↓ 27
2018-05-14 U Красный воробей / Red Sparrow (2018) HDRip от Scarabey | Лицензия 1.45 GB ↑ 80 ↓ 28
2018-05-14 U Красный воробей / Red Sparrow (2018) BDRip-AVC от HELLYWOOD | Лицензия 2.18 GB ↑ 65 ↓ 13

Отзывы
Зарегистрируйтесь чтобы добавить комментарий.
Обратная связь
Copyleft ©