↑↓Torrent.by
Поиск
Логин: Регистрация
Пароль: Восстановить пароль
Загрузка...

Месть / Revenge (2017) WEB-DLRip от Portablius | L1

Скачать mest-revenge-2017-web-dlrip-ot-portablius-l1.torrent
U Магнитная ссылка Размер: 745.78 MB Раздают: 43 Качают: 18 Добавлен: 2018-05-14 12:10:15
Месть / Revenge (2017) WEB-DLRip от Portablius | L1

Название: Месть
Оригинальное название: Revenge
Год выхода: 2017
Жанр: боевик, триллер
Режиссер: Корали Фаржеа
В ролях: Матильда Анна Ингрид Лутс, Кевин Дженссенс, Винсент Колумб, Гийом Бушед, Эвант Странгел

О фильме: Молодая американка Дженифер проводит выходные с женатым французским бойфрендом в уединенном комфортабельном доме с бассейном. Внезапно раньше времени туда заявляются двое его друзей, с которыми он договорился поохотиться в уик-энд. Девушке стоило бы вести себя поскромнее в присутствии незнакомых мужчин, но желая разжечь страсть любовника, Дженифер слегка заигрывает с его другом.

Страна: Франция
Студия: Canal+ [fr]
Продолжительность: 01:48:29
Перевод: Любительский (одноголосый, закадровый) [BadBajo]
Субтитры: Английские, неотключаемые (на фр. речь)

Файл
Кодек: XviD
Качество: WEB-DLRip
Видео: 688x288 (2.39:1), 23.976 fps, XviD build 73 ~823 kbps avg, 0.17 bit/pixel
Звук: 48 kHz, MPEG Layer 3, 2 ch, ~128.00 kbps avg
[+] MediaInfo
General
Complete name               : Revenge.2017.WEB-DLRip.ot.Portablius.avi
Format                      : AVI
Format/Info                 : Audio Video Interleave
File size                   : 746 MiB
Duration                    : 1 h 48 min
Overall bit rate            : 961 kb/s
Writing application         : VirtualDubMod 1.5.10.3 | www.virtualdub-fr.org || (build 2550/release)
Writing library             : VirtualDubMod build 2550/release

Video
ID                          : 0
Format                      : MPEG-4 Visual
Format profile              : Advanced Simple@L5
Format settings, BVOP       : 1
Format settings, QPel       : No
Format settings, GMC        : No warppoints
Format settings, Matrix     : Custom
Codec ID                    : XVID
Codec ID/Hint               : XviD
Duration                    : 1 h 48 min
Bit rate                    : 824 kb/s
Width                       : 688 pixels
Height                      : 288 pixels
Display aspect ratio        : 2.40:1
Frame rate                  : 23.976 (24000/1001) FPS
Color space                 : YUV
Chroma subsampling          : 4:2:0
Bit depth                   : 8 bits
Scan type                   : Progressive
Compression mode            : Lossy
Bits/(Pixel*Frame)          : 0.173
Stream size                 : 639 MiB (86%)
Writing library             : XviD 73

Audio
ID                          : 1
Format                      : MPEG Audio
Format version              : Version 1
Format profile              : Layer 3
Codec ID                    : 55
Codec ID/Hint               : MP3
Duration                    : 1 h 48 min
Bit rate mode               : Constant
Bit rate                    : 128 kb/s
Channel(s)                  : 2 channels
Sampling rate               : 48.0 kHz
Compression mode            : Lossy
Stream size                 : 99.3 MiB (13%)
Alignment                   : Aligned on interleaves
Interleave, duration        : 42  ms (1.00 video frame)
Interleave, preload duratio : 504  ms
Writing library             : LAME3.99r
Encoding settings           : -m s -V 4 -q 2 -lowpass 17 -b 128




Скриншоты:
[+] Всего файлов в раздаче - 1:
Revenge.2017.WEB-DLRip.ot.Portablius.avi745.78 MB

Показать еще раздачи по запросу месть:
2019-02-21 U Гоголь. Страшная месть (2018) DVDRip от Tapochek | Лицензия 2К1.47 GB ↑ 6 ↓ 54
2019-02-18 U Месть на десерт [01-04 из 04] (2018) WEB-DLRip-AVC от Files-x 2.27 GB ↑ 47 ↓ 20
2019-02-17 U Месть на десерт [01-04 из 04] (2018) WEB-DL 1080p от ExKinoRay 6.79 GB ↑ 123 ↓ 53
2019-02-17 U Месть на десерт [01-04 из 04] (2018) WEB-DL 720p от Files-x 3.53 GB ↑ 81 ↓ 58
2019-02-17 U Месть на десерт [01-04 из 04] (2018) WEB-DLRip от Files-x 2.28 GB ↑ 86 ↓ 59
2019-02-17 U Месть на десерт (01-04 из 04) (2018) WEB-DLRip от GeneralFilm 2.18 GB ↑ 164 ↓ 58
2019-02-16 U Месть на десерт [01-04 из 04] (2018) SATRip 2.34 GB ↑ 157 ↓ 180

Отзывы
Зарегистрируйтесь чтобы добавить комментарий.
Обратная связь
Copyleft ©