↑↓Torrent.by
Поиск
Логин: Регистрация
Пароль: Восстановить пароль
Загрузка...

Двадцать дней без войны (1976) WEBRip 1080p

Скачать dvadcat-dney-bez-voyny-1976-webrip-1080p.torrent
U Магнитная ссылка Размер: 2.38 GB Раздают: 34 Качают: 4 Добавлен: 2018-05-14 12:23:05
Двадцать дней без войны (1976) WEBRip 1080p

Название: Двадцать дней без войны
Год выхода: 1976
Жанр:  Драма, военный
Режиссер: Алексей Герман
В ролях: Юрий Никулин, Людмила Гурченко, Алексей Петренко, Ангелина Степанова, Екатерина Васильева, Николай Гринько, Люсьена Овчинникова, Михаил Кононов, Лия Ахеджакова

О фильме:
Конец 1942 года. Фронтовой журналист Лопатин приезжает в Ташкент в 20-дневный отпуск за Сталинград. Ему, оглушенному и ослепленному огнем, мирная жизнь кажется странной и непривычной: размокшие саманные домики, снег пополам с грязью, хлебные карточки, судорожно зажатые в кулаке, сводки от Советского Информбюро, убогий быт, похоронки и... театры, которые продолжали работу в тылу. За 20 дней отпуска без войны Лопатин успевает побывать на Ташкентской киностудии, где снимается фильм по его военным очеркам, встретить новый 1943 год в мирной компании, и пережить яркую любовь...

Страна:  СССР
Студия: Ленфильм
Продолжительность: 01:36:52
Перевод: Оригинал
Субтитры: Отсутствуют

Файл
Качество: WEBRip 1080p
Видео: AVC/H.264, 1920x840 (2.25:1), ~3255 Kbps
Аудио: AC3, 2 ch, 192 Kbps


[+] M/I
Общее
Уникальный идентификатор                 : 218385680160522800267465504433910124415 (0xA44B8D556B76D5455BD8BC078BE10F7F)
Полное имя                               : D:Двадцать дней без войны (1976).NNM-Club.mkv
Формат                                   : Matroska
Версия формата                           : Version 4 / Version 2
Размер файла                             : 2,38 Гбайт
Продолжительность                        : 1 ч. 36 м.
Общий поток                              : 3517 Кбит/сек
Программа кодирования                    : Lavf57.71.100
Библиотека кодирования                   : Lavf57.71.100
ErrorDetectionType                       : Per level 1

Видео
Идентификатор                            : 1
Формат                                   : AVC
Формат/Информация                        : Advanced Video Codec
Профиль формата                          : Baseline@L4
Настройки формата                        : 1 Ref Frames
Параметр CABAC формата                   : Нет
Параметр RefFrames формата               : 1 кадр
Идентификатор кодека                     : V_MPEG4/ISO/AVC
Продолжительность                        : 1 ч. 36 м.
Битрейт                                  : 3255 Кбит/сек
Ширина                                   : 1920 пикселей
Высота                                   : 840 пикселей
Соотношение сторон                       : 2,25:1
Режим частоты кадров                     : Постоянный
Частота кадров                           : 25,000 кадров/сек
Цветовое пространство                    : YUV
Субдискретизация насыщенности            : 4:2:0
Битовая глубина                          : 8 бит
Тип развёртки                            : Прогрессивная
Бит/(Пиксели*Кадры)                      : 0.081
Размер потока                            : 2,20 Гбайт (93%)
Default                                  : Да
Forced                                   : Нет

Аудио
Идентификатор                            : 2
Формат                                   : AC-3
Формат/Информация                        : Audio Coding 3
Идентификатор кодека                     : A_AC3
Продолжительность                        : 1 ч. 36 м.
Вид битрейта                             : Постоянный
Битрейт                                  : 192 Кбит/сек
Каналы                                   : 2 канала
Расположение каналов                     : Front: L R
Частота                                  : 48,0 КГц
Частота кадров                           : 31,250 кадров/сек (1536 SPF)
Битовая глубина                          : 16 бит
Метод сжатия                             : С потерями
Размер потока                            : 133 Мбайт (5%)
ServiceKind/                    : Complete Main
Default                                  : Да
Forced                                   : Нет



[+] Двадцать дней без войны (Алексей Герман) (1976 г., Фронтовая повесть, DVD5)



Скриншоты:
[+] Всего файлов в раздаче - 1:
Двадцать дней без войны (1976).NNM-Club.mkv2.38 GB

Текущая раздача:
ДатаКомментарии    РазмерПиры
2018-05-14 U Двадцать дней без войны (1976) WEBRip 1080p 2.38 GB ↑ 34 ↓ 4

Похожие раздачи по запросу - двадцать:
2016-03-11 U Однажды двадцать лет спустя (1980) WEB-DL 720p от New Team 1К2.27 GB ↑ 39 ↓ 8
2015-12-28 U Двадцать восемь панфиловцев (2016) WEBRip 1080p | Трейлер 1К300.12 MB ↑ 681 ↓ 90
2014-03-06 U Мне двадцать лет (1964) DVDRip от Кинорадиомагия 2.05 GB ↑ 96 ↓ 16
2013-11-12 U Двадцать одно / 21 (2008) HDRip от Scarabey 7К1.45 GB ↑ 507 ↓ 17

Отзывы
Зарегистрируйтесь чтобы добавить комментарий.
Обратная связь
Copyleft ©