↑↓Torrent.by
Поиск
Логин: Регистрация
Пароль: Восстановить пароль
Загрузка...

Супермошенники / Supercon (2018) WEB-DLRip | HDrezka Studio

Скачать supermoshenniki-supercon-2018-web-dlrip-hdrezka-studio.torrent
U Магнитная ссылка Размер: 1.37 GB Раздают: 107 Качают: 69 Добавлен: 2018-05-14 16:12:36
Супермошенники / Supercon (2018) WEB-DLRip | HDrezka Studio

Супермошенники / Supercon

Страна: США
Производство: Momentum Productions
Год выпуска: 2018
Жанр:  комедия
Продолжительность: 01:39:51

Режиссер: Зак Натсон
Авторы сценария: Зак Натсон, Эндрю Сайпс, Дэна Снайдер

В ролях: Мэгги Грэйс, Клэнси Браун, Джон Малкович, Райан Квантен, Майк Эппс, Джош Перри, Дэна Снайдер, Расселл Питерс, Зак Натсон

Описание: Группа вышедших в тираж телезвёзд зарабатывает участием в конвентах. Но мириться с таким положением вещей им надоедает, и компания решает обокрасть властного телепродюсера...

Перевод: Профессиональный (многоголосый, закадровый) | HDrezka Studio
Субтитры: нет

Качество: WEB-DLRip
Формат: AVI
Видео кодек: XviD
Аудио кодек: АС3
Видео: 720x304 (2.35:1), 23.976 fps, XviD ~1 572 kbps avg
Аудио: 48.0 kHz, AC3 Dolby Digital, 2/0 (L,R) ch, ~384 kbps

Дата премьеры (мир): 27 апреля 2018


[+] Media Info
General
Complete name                  : Supercon (2018) WEB-DLRip.avi
Format                         : AVI
Format/Info                    : Audio Video Interleave
File size                      : 1.37 GiB
Duration                       : 1h 39mn
Overall bit rate               : 1 965 Kbps
Writing application            : VirtualDubMod 1.5.10.3 | (build 2550/release)
Writing library                : VirtualDubMod build 2550/release

Video
ID                             : 0
Format                         : MPEG-4 Visual
Format profile                 : Advanced Simple@L5
Format settings, BVOP          : 1
Format settings, QPel          : No
Format settings, GMC           : No warppoints
Format settings, Matrix        : Custom
Codec ID                       : XVID
Codec ID/Hint                  : XviD
Duration                       : 1h 39mn
Bit rate                       : 1 572 Kbps
Width                          : 720 pixels
Height                         : 304 pixels
Display aspect ratio           : 2.35:1
Frame rate                     : 23.976 fps
Color space                    : YUV
Chroma subsampling             : 4:2:0
Bit depth                      : 8 bits
Scan type                      : Progressive
Compression mode               : Lossy
Bits/(Pixel*Frame)             : 0.299
Stream size                    : 1.10 GiB (80%)
Writing library                : XviD 1.2.1 (UTC 2008-12-04)

Audio
ID                             : 1
Format                         : AC-3
Format/Info                    : Audio Coding 3
Mode extension                 : CM (complete main)
Format settings, Endianness    : Big
Codec ID                       : 2000
Duration                       : 1h 39mn
Bit rate mode                  : Constant
Bit rate                       : 384 Kbps
Channel(s)                     : 2 channels
Channel positions              : Front: L R
Sampling rate                  : 48.0 KHz
Compression mode               : Lossy
Stream size                    : 274 MiB (20%)
Alignment                      : Split accross interleaves
Interleave, duration           : 42 ms (1.00 video frame)
Interleave, preload duration   : 500 ms



Скриншоты:
[+] Всего файлов в раздаче - 1:
Supercon (2018) WEB-DLRip.avi1.37 GB

Текущая раздача:
ДатаКомментарии    РазмерПиры
2018-05-14 U Супермошенники / Supercon (2018) WEB-DLRip | HDrezka Studio 1.37 GB ↑ 107 ↓ 69

Похожие раздачи по запросу - супермошенники:
2018-05-15 U Супермошенники / Supercon (2018) WEB-DL 1080p | HDrezka Studio 5.00 GB ↑ 76 ↓ 40
2018-05-15 U Супермошенники / Supercon (2018) WEB-DL 1080p | HDrezka Studio 3.71 GB ↑ 176 ↓ 63

Отзывы
Зарегистрируйтесь чтобы добавить комментарий.
Обратная связь
Copyleft ©