↑↓Torrent.by
Поиск
Логин: Регистрация
Пароль: Восстановить пароль
Загрузка...

Искупление / The Redeeming (2018) WEBRip | L2

Скачать iskuplenie-the-redeeming-2018-webrip-l2.torrent
U Магнитная ссылка Размер: 1.30 GB Раздают: 43 Качают: 14 Добавлен: 2018-05-14 16:13:26
Искупление / The Redeeming (2018) WEBRip | L2

Название: Искупление
Оригинальное название: The Redeeming
Год выхода: 2018
Жанр: Драма, триллер
Режиссер: Брайан Барнс
В ролях: Роберт Блэквуд, Роберт Корен, Райан Уичерт, Трейси Энн Вуд и другие
О фильме:
Психически неуравновешенная одинокая женщина противостоит таинственному незнакомцу и призракам своего прошлого в попытке защитить свой дом.

Страна: Великобритания, Osmium Films, Redeeming Film
Продолжительность: 01:25:20
Перевод: Любительский (двухголосый закадровый) | HiWay Grope

Файл
Кодек: XviD
Качество: WEBRip
Видео: 720x400, 23.976 fps, ~1792 kbps, 0.26 bit/pixel
Звук:
Аудио rus: AC3, 48 kHz, 6 ch, 384 Kbps
Субтитры: отсутствуют

Реклама: присутствует

Семпл

Релиз от: HiWay Grope


[+] MediaInfo:

General
Complete name                            : E:The Redeeming.2018.WEBRip.HiWayGropeThe Redeeming.2018.WEBRip.HiWayGrope.avi
Format                                   : AVI
Format/Info                              : Audio Video Interleave
File size                                : 1.30 GiB
Duration                                 : 1h 25mn
Overall bit rate                         : 2 186 Kbps
Writing application                      : VirtualDubMod 1.5.10.3 (build 2550/release)
Writing library                          : VirtualDubMod build 2550/release

Video
ID                                       : 0
Format                                   : MPEG-4 Visual
Format profile                           : Advanced Simple@L5
Format settings, BVOP                    : 1
Format settings, QPel                    : No
Format settings, GMC                     : No warppoints
Format settings, Matrix                  : Default (MPEG)
Codec ID                                 : XVID
Codec ID/Hint                            : XviD
Duration                                 : 1h 25mn
Bit rate                                 : 1 792 Kbps
Width                                    : 720 pixels
Height                                   : 400 pixels
Display aspect ratio                     : 16:9
Frame rate                               : 23.976 (23976/1000) fps
Color space                              : YUV
Chroma subsampling                       : 4:2:0
Bit depth                                : 8 bits
Scan type                                : Progressive
Compression mode                         : Lossy
Bits/(Pixel*Frame)                       : 0.260
Stream size                              : 1.07 GiB (82%)
Writing library                          : XviD 73

Audio
ID                                       : 1
Format                                   : AC-3
Format/Info                              : Audio Coding 3
Mode extension                           : CM (complete main)
Format settings, Endianness              : Big
Codec ID                                 : 2000
Duration                                 : 1h 25mn
Bit rate mode                            : Constant
Bit rate                                 : 384 Kbps
Channel(s)                               : 6 channels
Channel positions                        : Front: L C R, Side: L R, LFE
Sampling rate                            : 48.0 KHz
Frame rate                               : 31.250 fps (1536 spf)
Compression mode                         : Lossy
Stream size                              : 234 MiB (18%)
Alignment                                : Split accross interleaves
Interleave, duration                     : 42 ms (1.00 video frame)
Interleave, preload duration             : 500 ms




Скриншоты:
[+] Всего файлов в раздаче - 1:
The Redeeming.2018.WEBRip.HiWayGrope.avi1.30 GB

Текущая раздача:
ДатаКомментарии    РазмерПиры
2018-05-14 U Искупление / The Redeeming (2018) WEBRip | L2 1.30 GB ↑ 43 ↓ 14

Показать еще раздачи по запросу искупление:
2018-02-24 U Искупление [01-04 из 04] (2017) WEB-DLRip-AVC от Files-x 2.40 GB ↑ 128 ↓ 44
2018-02-24 U Искупление [01-04 из 04] (2017) WEB-DLRip от Files-x 2.36 GB ↑ 93 ↓ 49
2018-02-19 U Знак: Искупление / The Mark: Redemption (2013) HDRip | L1 1.37 GB ↑ 73 ↓ 33
2017-09-09 U Искупление / The Atoning (2017) WEB-DLRip 720р | L 2.70 GB ↑ 68 ↓ 15
2017-09-08 U Искупление / The Atoning (2017) WEB-DLRip | L 1.36 GB ↑ 194 ↓ 60
2017-03-19 U Черный список: Искупление / The Blacklist: Redemption [01x01-04 из 13] (2017) WEBRip | LostFilm 1.96 GB ↑ 69 ↓ 67
2017-03-12 U Черный список: Искупление / The Blacklist: Redemption [01x01-03 из 13] (2017) WEBRip | LostFilm 1.47 GB ↑ 53 ↓ 88

Отзывы
Зарегистрируйтесь чтобы добавить комментарий.
Обратная связь
Copyleft ©