↑↓Torrent.by
Поиск
Логин: Регистрация
Пароль: Восстановить пароль
Загрузка...

Супермошенники / Supercon (2018) WEB-DL 1080p | HDrezka Studio

Скачать supermoshenniki-supercon-2018-web-dl-1080p-hdrezka-studio.torrent
U Магнитная ссылка Размер: 3.71 GB Раздают: 176 Качают: 63 Добавлен: 2018-05-15 10:00:44
Супермошенники / Supercon (2018) WEB-DL 1080p | HDrezka Studio

Название: Супермошенники
Оригинальное название: Supercon
Год выпуска: 2018
Жанр:  комедия
Режиссер: Зак Натсон
Авторы сценария: Зак Натсон, Эндрю Сайпс, Дэна Снайдер

В ролях: Мэгги Грэйс, Клэнси Браун, Джон Малкович, Райан Квантен, Майк Эппс, Джош Перри, Дэна Снайдер, Расселл Питерс, Зак Натсон

Описание:
Группа вышедших в тираж телезвёзд зарабатывает участием в конвентах. Но мириться с таким положением вещей им надоедает, и компания решает обокрасть властного телепродюсера...

Страна: США
Производство: Momentum Productions
Продолжительность: 01:39:50
Перевод: Профессиональный (многоголосый, закадровый) | HDrezka Studio
Субтитры: Английские

Файл
Кодек: x.264
Качество: WEB-DL 1080p
Формат: MKV
Видео кодек: AVC
Аудио кодек: AC3
Видео: AVC, 1920x798 (2.40:1), 4353 kbps (0.118 b/px), 23.976 fps
Аудио #1: AC3, 384 kbps (CBR), 48.0 KHz (16 bits), 2 ch, Russian
Аудио #2: AC3, 384 kbps (CBR), 48.0 KHz (16 bits), 6 ch, English

Примечание: Релиз без рекламы!


[+] MediaInfo
General
Unique ID                   : 236764873519680991212751231795758230226 (0xB21F41873039D8068CC1E2303655EAD2)
Complete name               : C:UsersUserDesktopСупермошенники.2018.1080p.WEB-DL.Rustorrents.mkv
Format                      : Matroska
Format version              : Version 2
File size                   : 3.71 GiB
Duration                    : 1 h 41 min
Overall bit rate            : 5 225 kb/s
Encoded date                : UTC 2018-05-14 05:56:40
Writing application         : mkvmerge v7.8.0 ('River Man') 32bit built on Apr  3 2015 12:11:22
Writing library             : libebml v1.3.1 + libmatroska v1.4.2

Video
ID                          : 1
Format                      : AVC
Format/Info                 : Advanced Video Codec
Format profile              : High@L4
Format settings             : CABAC / 5 Ref Frames
Format settings, CABAC      : Yes
Format settings, ReFrames   : 5 frames
Codec ID                    : V_MPEG4/ISO/AVC
Duration                    : 1 h 41 min
Bit rate                    : 4 353 kb/s
Width                       : 1 920 pixels
Height                      : 798 pixels
Display aspect ratio        : 2.40:1
Frame rate mode             : Constant
Frame rate                  : 23.976 (24000/1001) FPS
Color space                 : YUV
Chroma subsampling          : 4:2:0
Bit depth                   : 8 bits
Scan type                   : Progressive
Bits/(Pixel*Frame)          : 0.118
Stream size                 : 3.09 GiB (83%)
Language                    : English
Default                     : Yes
Forced                      : No
Color range                 : Limited
Color primaries             : BT.709
Transfer characteristics    : BT.709
Matrix coefficients         : BT.709

Audio #1
ID                          : 2
Format                      : AC-3
Format/Info                 : Audio Coding 3
Codec ID                    : A_AC3
Duration                    : 1 h 41 min
Bit rate mode               : Constant
Bit rate                    : 384 kb/s
Channel(s)                  : 2 channels
Channel positions           : Front: L R
Sampling rate               : 48.0 kHz
Frame rate                  : 31.250 FPS (1536 SPF)
Bit depth                   : 16 bits
Compression mode            : Lossy
Delay relative to video     : -42 ms
Stream size                 : 279 MiB (7%)
Language                    : Russian
Service kind                : Complete Main
Default                     : Yes
Forced                      : Yes

Audio #2
ID                          : 3
Format                      : AC-3
Format/Info                 : Audio Coding 3
Codec ID                    : A_AC3
Duration                    : 1 h 41 min
Bit rate mode               : Constant
Bit rate                    : 384 kb/s
Channel(s)                  : 6 channels
Channel positions           : Front: L C R, Side: L R, LFE
Sampling rate               : 48.0 kHz
Frame rate                  : 31.250 FPS (1536 SPF)
Bit depth                   : 16 bits
Compression mode            : Lossy
Delay relative to video     : -42 ms
Stream size                 : 279 MiB (7%)
Language                    : English
Service kind                : Complete Main
Default                     : No
Forced                      : No

Text
ID                          : 4
Format                      : UTF-8
Codec ID                    : S_TEXT/UTF8
Codec ID/Info               : UTF-8 Plain Text
Language                    : English
Default                     : No
Forced                      : No

Menu
00:00:00.000                : en:1
00:06:41.443                : en:2
00:11:07.250                : en:3
00:19:59.365                : en:4
00:25:40.706                : en:5
00:29:55.293                : en:6
00:35:31.711                : en:7
00:41:31.153                : en:8
00:47:56.037                : en:9
00:53:07.055                : en:10
00:58:55.694                : en:11
01:06:57.842                : en:12
01:12:33.676                : en:13
01:17:20.629                : en:14
01:24:12.206                : en:15
01:33:35.810                : en:16



Скриншоты:
[+] Всего файлов в раздаче - 1:
Supercon.2018.1080p.WEB-DL.Rustorrents.mkv3.71 GB

Текущая раздача:
ДатаКомментарии    РазмерПиры
2018-05-15 U Супермошенники / Supercon (2018) WEB-DL 1080p | HDrezka Studio 3.71 GB ↑ 176 ↓ 63

Похожие раздачи по запросу - супермошенники:
2018-05-15 U Супермошенники / Supercon (2018) WEB-DL 1080p | HDrezka Studio 5.00 GB ↑ 70 ↓ 40
2018-05-14 U Супермошенники / Supercon (2018) WEB-DLRip | HDrezka Studio 1.37 GB ↑ 102 ↓ 69

Отзывы
Зарегистрируйтесь чтобы добавить комментарий.
Обратная связь
Copyleft ©