↑↓Torrent.by
Поиск
Логин: Регистрация
Пароль: Восстановить пароль
Загрузка...

Входящий / Incoming (2018) WEBRip 720p | L2

Скачать vhodyaschiy-incoming-2018-webrip-720p-l2.torrent
U Магнитная ссылка Размер: 2.12 GB Раздают: 157 Качают: 53 Добавлен: 2018-05-15 10:00:48
Входящий / Incoming (2018) WEBRip 720p | L2

Название: Входящий
Оригинальное название: Incoming
Год выхода: 2018
Жанр: Фантастика, боевик, триллер
Режиссер: Эрик Сарагоса
В ролях: Скотт Эдкинс, Доминик Пауэр, Аарон МакКаскер, Алаа Умузун, Арки Аломар, Лукас Лоугрэн, Мишель Лехане, Миодраг Капор, Владан Дужович, Вахидин Прелик и другие
О фильме:
Международная космическая станция превратилась в секретную тюрьму, из которой никто не выходит, и никто не знает, что именно там происходит. Когда заключенные террористы захватывают станцию ​​и направляют ее на Москву, только пилот и новичок-доктор могут остановить их. Эта задача усложняется бывшим агентом ЦРУ, у которого свои планы и на станцию, и на террористов.

Страна: Сербия, Benattar/Thomas Productions, Incoming Productions, Premiere Entertainment Group
Продолжительность: 01:29:35
Перевод: Любительский (двухголосый закадровый) | HiWay Grope

Файл
Кодек: MPEG-4 AVC/x.264
Качество: WEBRip 720p
Видео: 1280x576, 23.976 fps, ~2930 kbps, 0.166 bit/pixel
Звук:
Аудио rus: AC3, 48 kHz, 6 ch, 384 Kbps
Субтитры: отсутствуют

Реклама: присутствует

Семпл

Релиз от: HiWay Grope


[+] MediaInfo:

General
Unique ID                                : 209229736161590987879420458109270385143 (0x9D682E7114D532E15B96509A3F3A61F7)
Complete name                            : E:Incoming.2018.720p.WEBRip.HiWayGropeIncoming.2018.720p.WEBRip.HiWayGrope.mkv
Format                                   : Matroska
Format version                           : Version 4 / Version 2
File size                                : 2.12 GiB
Duration                                 : 1h 29mn
Overall bit rate                         : 3 382 Kbps
Encoded date                             : UTC 2018-05-15 02:55:13
Writing application                      : mkvmerge v21.0.0 ('Tardigrades Will Inherit The Earth') 64-bit
Writing library                          : libebml v1.3.5 + libmatroska v1.4.8

Video
ID                                       : 1
Format                                   : AVC
Format/Info                              : Advanced Video Codec
Format profile                           : Main@L3.1
Format settings, CABAC                   : Yes
Format settings, ReFrames                : 4 frames
Codec ID                                 : V_MPEG4/ISO/AVC
Duration                                 : 1h 29mn
Bit rate                                 : 2 930 Kbps
Width                                    : 1 280 pixels
Height                                   : 576 pixels
Display aspect ratio                     : 2.2:1
Frame rate mode                          : Constant
Frame rate                               : 23.976 (24000/1001) fps
Standard                                 : NTSC
Color space                              : YUV
Chroma subsampling                       : 4:2:0
Bit depth                                : 8 bits
Scan type                                : Progressive
Bits/(Pixel*Frame)                       : 0.166
Stream size                              : 1.83 GiB (87%)
Language                                 : English
Default                                  : Yes
Forced                                   : No
Color range                              : Limited
Color primaries                          : BT.601 PAL
Transfer characteristics                 : BT.470 System B, BT.470 System G
Matrix coefficients                      : BT.601

Audio
ID                                       : 2
Format                                   : AC-3
Format/Info                              : Audio Coding 3
Mode extension                           : CM (complete main)
Format settings, Endianness              : Big
Codec ID                                 : A_AC3
Duration                                 : 1h 29mn
Bit rate mode                            : Constant
Bit rate                                 : 384 Kbps
Channel(s)                               : 6 channels
Channel positions                        : Front: L C R, Side: L R, LFE
Sampling rate                            : 48.0 KHz
Frame rate                               : 31.250 fps (1536 spf)
Compression mode                         : Lossy
Stream size                              : 246 MiB (11%)
Language                                 : Russian
Default                                  : Yes
Forced                                   : No




Скриншоты:
[+] Всего файлов в раздаче - 1:
Incoming.2018.720p.WEBRip.HiWayGrope.mkv2.12 GB

Текущая раздача:
ДатаКомментарии    РазмерПиры
2018-05-15 U Входящий / Incoming (2018) WEBRip 720p | L2 2.12 GB ↑ 157 ↓ 53

Похожие раздачи по запросу - входящий:
2018-05-19 U Входящий / Incoming (2018) WEBRip 720p | HDrezka Studio 2.69 GB ↑ 63 ↓ 24
2018-05-17 U Входящий / Incoming (2018) WEBRip 1080р | HDrezka Studio 3.33 GB ↑ 128 ↓ 82
2018-05-17 U Входящий / Incoming (2018) WEBRip | HDrezka Studio 1.46 GB ↑ 154 ↓ 81
2018-05-15 U Входящий / Incoming (2018) WEBRip | L2 1.31 GB ↑ 126 ↓ 68

Отзывы
Зарегистрируйтесь чтобы добавить комментарий.
Обратная связь
Copyleft ©