↑↓Torrent.by
Поиск
Логин: Регистрация
Пароль: Восстановить пароль
Загрузка...

Входящий / Incoming (2018) WEBRip | L2

Скачать vhodyaschiy-incoming-2018-webrip-l2.torrent
U Магнитная ссылка Размер: 1.31 GB Раздают: 133 Качают: 72 Добавлен: 2018-05-15 10:00:55
Входящий / Incoming (2018) WEBRip | L2

Название: Входящий
Оригинальное название: Incoming
Год выхода: 2018
Жанр: Фантастика, боевик, триллер
Режиссер: Эрик Сарагоса
В ролях: Скотт Эдкинс, Доминик Пауэр, Аарон МакКаскер, Алаа Умузун, Арки Аломар, Лукас Лоугрэн, Мишель Лехане, Миодраг Капор, Владан Дужович, Вахидин Прелик и другие
О фильме:
Международная космическая станция превратилась в секретную тюрьму, из которой никто не выходит, и никто не знает, что именно там происходит. Когда заключенные террористы захватывают станцию ​​и направляют ее на Москву, только пилот и новичок-доктор могут остановить их. Эта задача усложняется бывшим агентом ЦРУ, у которого свои планы и на станцию, и на террористов.

Страна: Сербия, Benattar/Thomas Productions, Incoming Productions, Premiere Entertainment Group
Продолжительность: 01:29:35
Перевод: Любительский (двухголосый закадровый) | HiWay Grope

Файл
Кодек: XviD
Качество: WEBRip
Видео: 720x336, 23.976 fps, ~1698 kbps, 0.29 bit/pixel
Звук:
Аудио rus: AC3, 48 kHz, 6 ch, 384 Kbps
Субтитры: отсутствуют

Реклама: присутствует

Семпл

Релиз от: HiWay Grope


[+] MediaInfo:

General
Complete name                            : E:Incoming.2018.WEBRip.HiWayGropeIncoming.2018.WEBRip.HiWayGrope.avi
Format                                   : AVI
Format/Info                              : Audio Video Interleave
File size                                : 1.31 GiB
Duration                                 : 1h 29mn
Overall bit rate                         : 2 092 Kbps
Writing application                      : VirtualDubMod 1.5.10.3 (build 2550/release)
Writing library                          : VirtualDubMod build 2550/release

Video
ID                                       : 0
Format                                   : MPEG-4 Visual
Format profile                           : Advanced Simple@L5
Format settings, BVOP                    : 1
Format settings, QPel                    : No
Format settings, GMC                     : No warppoints
Format settings, Matrix                  : Default (MPEG)
Codec ID                                 : XVID
Codec ID/Hint                            : XviD
Duration                                 : 1h 29mn
Bit rate                                 : 1 698 Kbps
Width                                    : 720 pixels
Height                                   : 336 pixels
Display aspect ratio                     : 2.143
Frame rate                               : 23.976 (23976/1000) fps
Color space                              : YUV
Chroma subsampling                       : 4:2:0
Bit depth                                : 8 bits
Scan type                                : Progressive
Compression mode                         : Lossy
Bits/(Pixel*Frame)                       : 0.293
Stream size                              : 1.06 GiB (81%)
Writing library                          : XviD 73

Audio
ID                                       : 1
Format                                   : AC-3
Format/Info                              : Audio Coding 3
Mode extension                           : CM (complete main)
Format settings, Endianness              : Big
Codec ID                                 : 2000
Duration                                 : 1h 29mn
Bit rate mode                            : Constant
Bit rate                                 : 384 Kbps
Channel(s)                               : 6 channels
Channel positions                        : Front: L C R, Side: L R, LFE
Sampling rate                            : 48.0 KHz
Frame rate                               : 31.250 fps (1536 spf)
Compression mode                         : Lossy
Stream size                              : 246 MiB (18%)
Alignment                                : Split accross interleaves
Interleave, duration                     : 42 ms (1.00 video frame)
Interleave, preload duration             : 500 ms




Скриншоты:
[+] Всего файлов в раздаче - 1:
Incoming.2018.WEBRip.HiWayGrope.avi1.31 GB

Текущая раздача:
ДатаКомментарии    РазмерПиры
2018-05-15 U Входящий / Incoming (2018) WEBRip | L2 1.31 GB ↑ 133 ↓ 72

Похожие раздачи по запросу - входящий:
2018-05-19 U Входящий / Incoming (2018) WEBRip 720p | HDrezka Studio 2.69 GB ↑ 119 ↓ 79
2018-05-17 U Входящий / Incoming (2018) WEBRip 1080р | HDrezka Studio 3.33 GB ↑ 207 ↓ 87
2018-05-17 U Входящий / Incoming (2018) WEBRip | HDrezka Studio 1.46 GB ↑ 184 ↓ 84
2018-05-15 U Входящий / Incoming (2018) WEBRip 720p | L2 2.12 GB ↑ 220 ↓ 54

Отзывы
Зарегистрируйтесь чтобы добавить комментарий.
Обратная связь
Copyleft ©