↑↓Torrent.by
Поиск
Логин: Регистрация
Пароль: Восстановить пароль
Загрузка...

Запретный мир / Forbidden World (1982) BDRip-AVC от ExKinoRay | A

Скачать zapretnyy-mir-forbidden-world-1982-bdrip-avc-ot-exkinoray-a.torrent
U Магнитная ссылка Размер: 746.27 MB Раздают: 38 Качают: 21 Добавлен: 2018-05-15 17:31:27
Запретный мир / Forbidden World (1982) BDRip-AVC от ExKinoRay | A

Название: Запретный мир
Оригинальное название: Forbidden World
Год выхода: 1982
Жанр: Фантастика, ужасы
Режиссер: Аллан Холцмен
В ролях: Джесси Винт, Доун Данлэп, Джун Чэдвик, Линден Чайлз, Фокс Харрис, Рэймонд Оливер, Скотт Полин, Майкл Боуэн, Дон Оливера, Виктор Уоррен

О фильме :
Межгалактический охотник Майк Косби отправляется на генетическую исследовательскую станцию, расположенную в отдаленной пустынной Галактике, где проводились эксперименты по созданию существа на основе человеческих клеток. Недавно со станцией прервалась связь, и эксперимент вышел из-под контроля Земли. Вскоре после прибытия Майка на станцию, он обнаруживает, что из одного кокона вылупился страшный генетический мутант, который уничтожил практически всех обитателей станции.

Выпущено: США
Продолжительность: 01:17:13
Перевод 1: Авторский (одноголосый) Вячеслав Котов
Перевод 2: Авторский (одноголосый) Леонид Володарский

Файл
Формат: MKV
Качество: BDRip-AVC (BDRemux 1080p)
Видео: MPEG-4 AVC, 768x432, ~ 1197 Кбит/с
Аудио 1:  AAC-HE, 2 ch, ~ 76 Кбит/с | AVO, Котов
Аудио 2:  AAC-HE, 2 ch, ~ 76 Кбит/с | AVO, Володарский
Субтитры: Нет

Релиз:


[+] MI
Общее
Уникальный идентификатор : 190724966129960857890260679707431876440 (0x8F7C4AD6DF587A8094C068AC70E93758)
Полное имя : D:MOVIESForbidden.World.1982.ExKinoRay.mkv
Формат : Matroska
Версия формата : Version 4 / Version 2
Размер файла : 746 Мбайт
Продолжительность : 1 ч. 17 м.
Общий поток : 1351 Кбит/сек
Дата кодирования : UTC 2018-05-15 04:54:40
Программа кодирования : mkvmerge v15.0.0 ('Duel with the Devil') 64-bit
Библиотека кодирования : libebml v1.3.5 + libmatroska v1.4.5

Видео
Идентификатор : 1
Формат : AVC
Формат/Информация : Advanced Video Codec
Профиль формата : High@L4.1
Параметр CABAC формата : Да
Параметр RefFrames формата : 10 кадров
Идентификатор кодека : V_MPEG4/ISO/AVC
Продолжительность : 1 ч. 17 м.
Битрейт : 1197 Кбит/сек
Ширина : 768 пикселей
Высота : 432 пикселя
Соотношение сторон : 16:9
Режим частоты кадров : Постоянный
Частота кадров : 23,976 (24000/1001) кадра/сек
Цветовое пространство : YUV
Субдискретизация насыщенности : 4:2:0
Битовая глубина : 8 бит
Тип развёртки : Прогрессивная
Бит/(Пиксели*Кадры) : 0.150
Размер потока : 661 Мбайт (89%)
Библиотека кодирования : x264 core 155 r2901 7d0ff22
Настройки программы : cabac=1 / ref=10 / deblock=1:-3:-3 / analyse=0x3:0x133 / me=umh / subme=11 / psy=1 / psy_rd=1.00:0.15 / mixed_ref=1 / me_range=32 / chroma_me=1 / trellis=2 / 8x8dct=1 / cqm=0 / deadzone=21,11 / fast_pskip=0 / chroma_qp_offset=-3 / threads=6 / lookahead_threads=1 / sliced_threads=0 / nr=0 / decimate=0 / interlaced=0 / bluray_compat=0 / constrained_intra=0 / bframes=10 / b_pyramid=2 / b_adapt=2 / b_bias=0 / direct=3 / weightb=1 / open_gop=0 / weightp=2 / keyint=240 / keyint_min=23 / scenecut=40 / intra_refresh=0 / rc_lookahead=40 / rc=2pass / mbtree=1 / bitrate=1197 / ratetol=1.0 / qcomp=0.60 / qpmin=0 / qpmax=69 / qpstep=4 / cplxblur=20.0 / qblur=0.5 / vbv_maxrate=50000 / vbv_bufsize=62500 / nal_hrd=none / filler=0 / ip_ratio=1.40 / aq=3:1.00
Default : Да
Forced : Нет

Аудио #1
Идентификатор : 2
Формат : AAC
Формат/Информация : Advanced Audio Codec
Профиль формата : HE-AAC / LC
Идентификатор кодека : A_AAC
Продолжительность : 1 ч. 17 м.
Битрейт : 76,0 Кбит/сек
Каналы : 2 канала
Расположение каналов : Front: L R
Частота : 48,0 КГц / 24,0 КГц
Частота кадров : 23,438 кадра/сек (1024 SPF)
Метод сжатия : С потерями
Задержка видео : 31 мс.
Размер потока : 42,0 Мбайт (6%)
Заголовок : Котов
Язык : Russian
Default : Да
Forced : Нет

Аудио #2
Идентификатор : 3
Формат : AAC
Формат/Информация : Advanced Audio Codec
Профиль формата : HE-AAC / LC
Идентификатор кодека : A_AAC
Продолжительность : 1 ч. 17 м.
Битрейт : 76,0 Кбит/сек
Каналы : 2 канала
Расположение каналов : Front: L R
Частота : 48,0 КГц / 24,0 КГц
Частота кадров : 23,438 кадра/сек (1024 SPF)
Метод сжатия : С потерями
Задержка видео : 31 мс.
Размер потока : 42,0 Мбайт (6%)
Заголовок : Володарский
Язык : Russian
Default : Нет
Forced : Нет

Меню
00:00:00.000 : en:00:00:00.000
00:09:04.169 : en:00:09:04.169
00:19:50.439 : en:00:19:50.439
00:28:12.149 : en:00:28:12.149
00:36:09.334 : en:00:36:09.334
00:43:20.515 : en:00:43:20.515
00:56:47.654 : en:00:56:47.654
01:09:43.554 : en:01:09:43.554



Скриншоты:
[+] Всего файлов в раздаче - 1:
Forbidden.World.1982.ExKinoRay.mkv746.27 MB

Текущая раздача:
ДатаКомментарии    РазмерПиры
2018-05-15 U Запретный мир / Forbidden World (1982) BDRip-AVC от ExKinoRay | A 1 К 746.27 MB ↑ 38 ↓ 21

Похожие раздачи по запросу - запретный:
2018-01-08 U Игорь Власов - Запретный Мир. Операция «Паломник» (2018) MP3 261.57 MB ↑ 315 ↓ 16
2017-09-30 U Артём Каменистый - Запретный Мир 2. Сердце Мира (2017) МР3 316.64 MB ↑ 69 ↓ 14
2016-07-31 U Темный лабиринт 3. Запретный сад. Коллекционное издание (2016) PC 1К1.54 GB ↑ 127 ↓ 16

Отзывы
dariabegunova
Существо на основе человеческих клеток лежит на четвёртом скрине... интересно будет посмотреть фильм! Спасибо большое!

Зарегистрируйтесь чтобы добавить комментарий.
Обратная связь
Copyleft ©