↑↓Torrent.by
Поиск
Логин: Регистрация
Пароль: Восстановить пароль
Загрузка...

Конченая / Terminal (2018) WEB-DL 1080p от Ash61 | L

Скачать konchenaya-terminal-2018-web-dl-1080p-ot-ash61-l.torrent
U Магнитная ссылка Размер: 7.19 GB Раздают: 283 Качают: 307 Добавлен: 2018-05-15 22:44:39
Конченая / Terminal (2018) WEB-DL 1080p от Ash61 | L

Конченая / Конечная
Terminal
«Ребятки, я вернулась!»


Страна: Ирландия, Великобритания, Гонконг, Венгрия, США (Highland Film Group, LuckyChap Entertainment, BeaglePug Films, Hassell Free Production, Miscellaneous Entertainment, BH RuYi Media, Subotica Entertainment)
Жанр:  триллер, криминал, драма
Год выпуска: 2018
Продолжительность: 01:35:32

Перевод: Любительский многоголосый закадровый - MuzOboz

Режиссер: Вон Стайн / Vaughn Stein

В ролях:

Марго Робби (Annie), Саймон Пегг (Bill), Декстер Флетчер (Vince), Макс Айронс (Alfred), Майк Майерс (Clinton), Катарина Час (Chloe Merryweather), Ник Моран (Illing), Лес Лавдей (Young Clinton), Джордан Данн (Conejo)

Описание: Фильм окунет вас в опасный мир английского криминала. В центре истории — роковая особа Энни, предстающая в разных амплуа. Она ведет сложную игру с несколькими мужчинами, которых — на первый взгляд — ничто не связывает. Стравливая их друг с другом, она преследует свою жестокую цель.
Что это: раздвоение личности? Или четко спланированная игра коварной обольстительницы?

Доп. информация: Русская дорога смонтирована из дороги Кошары (спасибо им за исходник!) и оригинальной дороги. Скорость дороги выровнена. Подчищена, насколько хватило терпения.

Премьера: 10 мая 2018 (17 мая 2018)

Тип релиза: WEB-DL 1080p (Amazon)
Контейнер: MKV

Видео: AVC / 1920х1080p / 23,976 fps / 9286 Kbps

Аудио:
#1 - Русский / AC3 / 48 KHz / 5.1 ch / 640 Kbps (MVO - MuzOboz) (монтаж Ash61)
#2 - Английский / EAC3 / 48 KHz / 5.1 ch / 640 Kbps (Original)

Субтитры (SRT):
Вшитые (softsub):
#1 - Русские Форсированные [от Ash61] (включены по умолчанию)
#2 - English Full
#3 - English SDH
#4 - Spanish Full


[+] MediaInfo
General
Unique ID                   : 214103069872077920221141843934958978187 (0xA112C058287D1942B9AD51F72A1A048B)
Complete name               : D:Terminal(2018)WEB-DL(Amazon)1080p(Rus-MuzOboz[Ash61]).mkv
Format                      : Matroska
Format version              : Version 2
File size                   : 7.19 GiB
Duration                    : 1h 35mn
Overall bit rate mode       : Variable
Overall bit rate            : 10.8 Mbps
Movie name                  : Конченая (Конечная) / Terminal (2018)
Encoded date                : UTC 2018-05-15 13:46:27
Writing application         : mkvmerge v5.8.0 ('No Sleep / Pillow') built on Sep  2 2012 15:37:04
Writing library             : libebml v1.2.3 + libmatroska v1.3.0

Video
ID                          : 1
Format                      : AVC
Format/Info                 : Advanced Video Codec
Format profile              : High@L4
Format settings, CABAC      : Yes
Format settings, ReFrames   : 4 frames
Codec ID                    : V_MPEG4/ISO/AVC
Duration                    : 1h 35mn
Bit rate mode               : Variable
Bit rate                    : 9 286 Kbps
Maximum bit rate            : 15.0 Mbps
Width                       : 1 920 pixels
Height                      : 1 080 pixels
Display aspect ratio        : 16:9
Frame rate mode             : Constant
Frame rate                  : 23.976 (24000/1001) fps
Color space                 : YUV
Chroma subsampling          : 4:2:0
Bit depth                   : 8 bits
Scan type                   : Progressive
Bits/(Pixel*Frame)          : 0.187
Stream size                 : 6.20 GiB (86%)
Title                       : WEB-DL (Amazon)
Language                    : English
Default                     : Yes
Forced                      : No
Color range                 : Limited
Color primaries             : BT.709
Transfer characteristics    : BT.709
Matrix coefficients         : BT.709

Audio #1
ID                          : 2
Format                      : AC-3
Format/Info                 : Audio Coding 3
Mode extension              : CM (complete main)
Format settings, Endianness : Big
Codec ID                    : A_AC3
Duration                    : 1h 35mn
Bit rate mode               : Constant
Bit rate                    : 640 Kbps
Channel(s)                  : 6 channels
Channel positions           : Front: L C R, Side: L R, LFE
Sampling rate               : 48.0 KHz
Frame rate                  : 31.250 fps (1536 spf)
Compression mode            : Lossy
Stream size                 : 437 MiB (6%)
Title                       : MVO - MuzOboz (монтаж Ash61)
Language                    : Russian
Default                     : Yes
Forced                      : No

Audio #2
ID                          : 3
Format                      : E-AC-3
Format/Info                 : Audio Coding 3
Format settings, Endianness : Big
Codec ID                    : A_EAC3
Duration                    : 1h 35mn
Bit rate mode               : Constant
Bit rate                    : 640 Kbps
Channel(s)                  : 6 channels
Channel positions           : Front: L C R, Side: L R, LFE
Sampling rate               : 48.0 KHz
Frame rate                  : 187.500 fps (256 spf)
Compression mode            : Lossy
Stream size                 : 437 MiB (6%)
Title                       : Original
Language                    : English
Default                     : No
Forced                      : No

Text #1
ID                          : 4
Format                      : UTF-8
Codec ID                    : S_TEXT/UTF8
Codec ID/Info               : UTF-8 Plain Text
Title                       : Форсированные (от Ash61)
Language                    : Russian
Default                     : Yes
Forced                      : No

Text #2
ID                          : 5
Format                      : UTF-8
Codec ID                    : S_TEXT/UTF8
Codec ID/Info               : UTF-8 Plain Text
Title                       : Full
Language                    : English
Default                     : No
Forced                      : No

Text #3
ID                          : 6
Format                      : UTF-8
Codec ID                    : S_TEXT/UTF8
Codec ID/Info               : UTF-8 Plain Text
Title                       : SDH
Language                    : English
Default                     : No
Forced                      : No

Text #4
ID                          : 7
Format                      : UTF-8
Codec ID                    : S_TEXT/UTF8
Codec ID/Info               : UTF-8 Plain Text
Title                       : Full
Language                    : Spanish
Default                     : No
Forced                      : No



[+] Огибающие дорог



Скриншоты:
[+] Всего файлов в раздаче - 1:
Terminal(2018)WEB-DL(Amazon)1080p(Rus-MuzOboz[Ash61]).mkv7.19 GB

Текущая раздача:
ДатаКомментарии    РазмерПиры
2018-05-15 U Конченая / Terminal (2018) WEB-DL 1080p от Ash61 | L 7.19 GB ↑ 283 ↓ 307

Показать еще раздачи по запросу конченая:
2018-05-20 U Конченая / Terminal (2018) WEB-DLRip-AVC | HDrezka Studio 736.41 MB ↑ 61 ↓ 17
2018-05-19 U Конченая / Terminal (2018) WEB-DLRip-AVC | HDrezka Studio 2.17 GB ↑ 183 ↓ 68
2018-05-19 U Конченая / Terminal (2018) WEB-DLRip от MegaPeer | HDrezka Studio 1.46 GB ↑ 80 ↓ 80
2018-05-19 U Конченая / Terminal (2018) WEB-DL 1080p | HDrezka Studio 6.90 GB ↑ 172 ↓ 190
2018-05-19 U Конченая / Terminal (2018) WEB-DLRip от MegaPeer | HDrezka Studio 1.29 GB ↑ 629 ↓ 40
2018-05-18 U Конченая / Terminal (2018) WEB-DLRip от Scarabey | L 1.44 GB ↑ 77 ↓ 30
2018-05-16 U Конченая / Terminal (2018) WEB-DLRip-AVC от ExKinoRay | L 1.64 GB ↑ 125 ↓ 74

Отзывы
Зарегистрируйтесь чтобы добавить комментарий.
Обратная связь
Copyleft ©