↑↓Torrent.by
Поиск
Логин: Регистрация
Пароль: Восстановить пароль
Загрузка...

Поезд на Париж / The 15:17 to Paris (2018) BDRip 720p от ExKinoRay | Лицензия

Скачать poezd-na-parizh-the-15-17-to-paris-2018-bdrip-720p-ot-exkinoray-licenziya.torrent
U Магнитная ссылка Размер: 3.42 GB Раздают: 103 Качают: 47 Добавлен: 2018-05-15 22:45:09
Поезд на Париж / The 15:17 to Paris (2018) BDRip 720p от ExKinoRay | Лицензия

Название: Поезд на Париж
Оригинальное название: The 15:17 to Paris
Год выхода: 2018
Жанр: Триллер, драма, история
Режиссер: Клинт Иствуд
В ролях: Спенсер Стоун, Энтони Сэдлер, Алек Скарлатос, Джуди Грир, Дженна Фишер, Рэй Корасани, Тони Хейл, Томас Леннон, Синква Уоллс, Лиллиэн Соланж Бодуан

О фильме: В центре сюжета события, произошедшие ранним вечером 21 августа 2015 года, когда весь мир, затаив дыхание, наблюдал за предотвращением террористической атаки в скоростном поезде N 9364 тремя бравыми молодыми американцами, которые в это время путешествовали по Европе.

Страна: США
Студия: Malpaso Productions
Продолжительность: 01:33:51
Перевод: Дублированный | Лицензия

Качество: BDRip 720p
Видео: MPEG-4 AVC, 1280x536, 4320 Kbit/s, 23.976 fps
Звук:
Аудио #01: 48 kHz, AC3, 5.1, 448 Kbps | Лицензия| RUS |
Аудио #02: 48 kHz, AC3, 5.1, 448 Kbps | Оригинал |  ENG |
Субтитры: Русские (forced, full), английские

Релиз: Автор релиза:


[+] MI
General
Unique ID                   : 193969033437696158421271622057303029567 (0x91ED13B4D710373B86E9F1861CE9373F)
Complete name               : C:Video111The.15.17.to.Paris.2018.Lic.BDRip.720p.ExKinoRay.mkv
Format                      : Matroska
Format version              : Version 4 / Version 2
File size                   : 3.42 GiB
Duration                    : 1 h 33 min
Overall bit rate            : 5 215 kb/s
Movie name                  : The 15 17 to Paris 2018 from ExKinoRay
Encoded date                : UTC 2018-05-15 14:17:28
Writing application         : mkvmerge v7.3.0 ('Nouages') 64bit built on Oct 22 2014 18:53:34
Writing library             : libebml v1.3.0 + libmatroska v1.4.1

Video
ID                          : 1
Format                      : AVC
Format/Info                 : Advanced Video Codec
Format profile              : High@L4.1
Format settings             : CABAC / 12 Ref Frames
Format settings, CABAC      : Yes
Format settings, ReFrames   : 12 frames
Codec ID                    : V_MPEG4/ISO/AVC
Duration                    : 1 h 33 min
Bit rate                    : 4 320 kb/s
Width                       : 1 280 pixels
Height                      : 536 pixels
Display aspect ratio        : 2.40:1
Frame rate mode             : Constant
Frame rate                  : 23.976 (24000/1001) FPS
Color space                 : YUV
Chroma subsampling          : 4:2:0
Bit depth                   : 8 bits
Scan type                   : Progressive
Bits/(Pixel*Frame)          : 0.263
Stream size                 : 2.83 GiB (83%)
Writing library             : x264 core 148 r2705 3f5ed56
Encoding settings           : cabac=1 / ref=12 / deblock=1:-3:-3 / analyse=0x3:0x133 / me=umh / subme=10 / psy=1 / psy_rd=1.05:0.05 / mixed_ref=1 / me_range=24 / chroma_me=1 / trellis=2 / 8x8dct=1 / cqm=0 / deadzone=21,11 / fast_pskip=0 / chroma_qp_offset=-3 / threads=12 / lookahead_threads=2 / sliced_threads=0 / nr=0 / decimate=0 / interlaced=0 / bluray_compat=0 / constrained_intra=0 / bframes=8 / b_pyramid=2 / b_adapt=2 / b_bias=0 / direct=3 / weightb=1 / open_gop=0 / weightp=2 / keyint=240 / keyint_min=23 / scenecut=40 / intra_refresh=0 / rc_lookahead=50 / rc=2pass / mbtree=0 / bitrate=4320 / ratetol=1.0 / qcomp=0.60 / qpmin=0 / qpmax=51 / qpstep=4 / cplxblur=20.0 / qblur=0.5 / vbv_maxrate=50000 / vbv_bufsize=62500 / nal_hrd=none / filler=0 / ip_ratio=1.40 / pb_ratio=1.30 / aq=3:0.80
Language                    : English
Default                     : Yes
Forced                      : No

Audio #1
ID                          : 2
Format                      : AC-3
Format/Info                 : Audio Coding 3
Codec ID                    : A_AC3
Duration                    : 1 h 33 min
Bit rate mode               : Constant
Bit rate                    : 448 kb/s
Channel(s)                  : 6 channels
Channel positions           : Front: L C R, Side: L R, LFE
Sampling rate               : 48.0 kHz
Frame rate                  : 31.250 FPS (1536 SPF)
Bit depth                   : 16 bits
Compression mode            : Lossy
Stream size                 : 301 MiB (9%)
Title                       : Dub [License]
Language                    : Russian
Service kind                : Complete Main
Default                     : Yes
Forced                      : Yes

Audio #2
ID                          : 3
Format                      : AC-3
Format/Info                 : Audio Coding 3
Codec ID                    : A_AC3
Duration                    : 1 h 33 min
Bit rate mode               : Constant
Bit rate                    : 448 kb/s
Channel(s)                  : 6 channels
Channel positions           : Front: L C R, Side: L R, LFE
Sampling rate               : 48.0 kHz
Frame rate                  : 31.250 FPS (1536 SPF)
Bit depth                   : 16 bits
Compression mode            : Lossy
Stream size                 : 301 MiB (9%)
Title                       : Original
Language                    : English
Service kind                : Complete Main
Default                     : No
Forced                      : No

Text #1
ID                          : 4
Format                      : UTF-8
Codec ID                    : S_TEXT/UTF8
Codec ID/Info               : UTF-8 Plain Text
Duration                    : 1 h 31 min
Bit rate                    : 4 b/s
Count of elements           : 61
Stream size                 : 2.72 KiB (0%)
Title                       : Forced
Language                    : Russian
Default                     : Yes
Forced                      : Yes

Text #2
ID                          : 5
Format                      : UTF-8
Codec ID                    : S_TEXT/UTF8
Codec ID/Info               : UTF-8 Plain Text
Duration                    : 1 h 27 min
Bit rate                    : 105 b/s
Count of elements           : 1624
Stream size                 : 67.5 KiB (0%)
Title                       : Full
Language                    : Russian
Default                     : No
Forced                      : No

Text #3
ID                          : 6
Format                      : UTF-8
Codec ID                    : S_TEXT/UTF8
Codec ID/Info               : UTF-8 Plain Text
Duration                    : 1 h 26 min
Bit rate                    : 78 b/s
Count of elements           : 1560
Stream size                 : 49.9 KiB (0%)
Title                       : Full
Language                    : English
Default                     : No
Forced                      : No

Menu
00:00:00.000                : en:00:00:00.000
00:09:51.925                : en:00:09:51.925
00:19:23.204                : en:00:19:23.204
00:30:49.264                : en:00:30:49.264
00:44:00.304                : en:00:44:00.304
00:52:51.168                : en:00:52:51.168
01:04:22.609                : en:01:04:22.609
01:11:52.767                : en:01:11:52.767
01:21:46.151                : en:01:21:46.151
01:27:00.340                : en:01:27:00.340



Скриншоты:
[+] Всего файлов в раздаче - 1:
The.15.17.to.Paris.2018.Lic.BDRip.720p.ExKinoRay.mkv3.42 GB

Текущая раздача:
ДатаКомментарии    РазмерПиры
2018-05-15 U Поезд на Париж / The 15:17 to Paris (2018) BDRip 720p от ExKinoRay | Лицензия 3.42 GB ↑ 103 ↓ 47

Показать еще раздачи по запросу поезд:
2018-05-16 U Поезд на Париж / The 15:17 to Paris (2018) BDRip-AVC от HELLYWOOD | Лицензия 2.17 GB ↑ 46 ↓ 30
2018-05-16 U Поезд на Париж / The 15:17 to Paris (2018) HDRip от MegaPeer | Лицензия 746.22 MB ↑ 37 ↓ 15
2018-05-16 U Поезд на Париж / The 15:17 to Paris (2018) BDRemux 1080p от ExKinoRay | Лицензия 18.05 GB ↑ 34 ↓ 27
2018-05-15 U Поезд на Париж / The 15:17 to Paris (2018) BDRip-AVC от ExKinoRay | Лицензия 1.45 GB ↑ 60 ↓ 12
2018-05-15 U Поезд на Париж / The 15:17 to Paris (2018) BDRip 1080p от ExKinoRay | Лицензия 7.20 GB ↑ 104 ↓ 63
2018-05-15 U Поезд на Париж / The 15:17 to Paris (2018) BDRip от MegaPeer | Лицензия 1.46 GB ↑ 126 ↓ 74
2018-05-10 U Поезд на Париж / The 15:17 to Paris (2018) BDRip 1080p | iTunes 6.64 GB ↑ 62 ↓ 67

Отзывы
Зарегистрируйтесь чтобы добавить комментарий.
Обратная связь
Copyleft ©