↑↓Torrent.by
Поиск
Логин: Регистрация
Пароль: Восстановить пароль
Загрузка...

Красный воробей / Red Sparrow (2018) BDRip-HEVC 1080p | 60 fps | Лицензия

Скачать krasnyy-vorobey-red-sparrow-2018-bdrip-hevc-1080p-60-fps-licenziya.torrent
U Магнитная ссылка Размер: 5.35 GB Раздают: 79 Качают: 57 Добавлен: 2018-05-15 22:45:24
Красный воробей / Red Sparrow (2018) BDRip-HEVC 1080p | 60 fps | Лицензия

Информация о фильме
Название: Красный воробей
Оригинальное название: Red Sparrow
Год выхода: 2018
Жанр: Триллер, детектив
Режиссер: Фрэнсис Лоуренс
Страна: США
Студия: Chernin Entertainment
Продолжительность: 02:20:13
Перевод: Дублированный | Лицензия

В ролях: Дженнифер Лоуренс, Джоэл Эдгертон, Маттиас Шонартс, Шарлотта Рэмплинг, Мэри-Луиз Паркер, Киаран Хайндс, Джоэли Ричардсон, Билл Кэмп, Джереми Айронс, Текла Рютен


О фильме:
После вынужденного окончания карьеры из-за профессиональной травмы Доминика Егорова и ее мать сталкиваются с мрачным и неопределенным будущим. Героиня соглашается стать рекрутом в Школе Воробьев, секретной службе, которая обучает уникальных молодых людей использовать свое тело и ум в качестве опаснейшего оружия. После долгого садистского обучения девушка превращается в самого опасного Воробья за всю историю секретной службы. Теперь бывшая балерина должна примирить в себе человека, которым она была, и силу, которой она овладела, со своей собственной жизнью и жизнью всех, кто ей дорог. В том числе, американского агента ЦРУ, пытающегося убедить ее, что он единственный человек, которому она может доверять.

Файл
Качество: BDRip-HEVC 1080p / 60 FPS by Cryptor (исходник BDRemux 1080p)
Формат: MKV
Видео кодек: x265
Аудио кодек: DTS, AC3
Видео: HEVC, 1920x800 (2.40:1), ~3 795 Кбит/сек, 60.000 кадр/сек, 10 bit
Аудио#1: DTS / 5.1 / 48 kHz / 768 kbps / 24 bits | Дублированный | Лицензия RUS  
Аудио#2: AC3 / 5.1 / 48 kHz / 448 kbps / 16 bits | Дублированный | Лицензия UKR  
Аудио#3: AC3 / 5.1 / 48 kHz / 448 kbps / 16 bits | Оригинал ENG  
Субтитры: Russian (2xFull), English (Full, SDH)


Релиз от: Cryptor


[+] Медиаинфо
[url=/tag/1/][/url]
General [url=/tag/1/][/url]
Unique ID                   : 271749696343578362932352621429046667465 (0xCC71167737D46A4CEC1FB85CDAD468C9) [url=/tag/1/][/url]
Complete name               : D:TorrentsRed.Sparrow.(2018).BDRip.1080p.FullHD.60FPS.HEVC.[Cryptor].mkv [url=/tag/1/][/url]
Format                      : Matroska [url=/tag/1/][/url]
Format version              : Version 4 / Version 2 [url=/tag/1/][/url]
File size                   : 5.35 GiB [url=/tag/1/][/url]
Duration                    : 2 h 20 min [url=/tag/1/][/url]
Overall bit rate            : 5 465 kb/s [url=/tag/1/][/url]
Movie name                  : Красный воробей / Red Sparrow (2018) [url=/tag/1/][/url]
Encoded date                : UTC 2018-05-15 05:38:00 [url=/tag/1/][/url]
Writing application         : mkvmerge v23.0.0 ('The Bride Said No') 64-bit [url=/tag/1/][/url]
Writing library             : libebml v1.3.6 + libmatroska v1.4.9 [url=/tag/1/][/url]
Cover                       : Yes [url=/tag/1/][/url]
Attachments                 : Cover.jpg [url=/tag/1/][/url]
[url=/tag/1/][/url]
Video [url=/tag/1/][/url]
ID                          : 1 [url=/tag/1/][/url]
Format                      : HEVC [url=/tag/1/][/url]
Format/Info                 : High Efficiency Video Coding [url=/tag/1/][/url]
Format profile              : Main 10@L4.1@Main [url=/tag/1/][/url]
Codec ID                    : V_MPEGH/ISO/HEVC [url=/tag/1/][/url]
Duration                    : 2 h 20 min [url=/tag/1/][/url]
Bit rate                    : 3 795 kb/s [url=/tag/1/][/url]
Width                       : 1 920 pixels [url=/tag/1/][/url]
Height                      : 800 pixels [url=/tag/1/][/url]
Display aspect ratio        : 2.40:1 [url=/tag/1/][/url]
Frame rate mode             : Constant [url=/tag/1/][/url]
Frame rate                  : 60.000 FPS [url=/tag/1/][/url]
Color space                 : YUV [url=/tag/1/][/url]
Chroma subsampling          : 4:2:0 [url=/tag/1/][/url]
Bit depth                   : 10 bits [url=/tag/1/][/url]
Bits/(Pixel*Frame)          : 0.041 [url=/tag/1/][/url]
Stream size                 : 3.72 GiB (69%) [url=/tag/1/][/url]
Title                       : Red.Sparrow.(2018).BDRip.1080p.FullHD.60FPS.HEVC.[Cryptor] [url=/tag/1/][/url]
Writing library             : x265 2.7+348-0968a46d6ba4:[Windows][MSVC 1914][64 bit] 10bit [url=/tag/1/][/url]
Encoding settings           : cpuid=1049583 / frame-threads=3 / numa-pools=8 / wpp / no-pmode / no-pme / no-psnr / no-ssim / log-level=2 / input-csp=1 / input-res=1920x800 / interlace=0 / total-frames=504797 / level-idc=0 / high-tier=1 / uhd-bd=0 / ref=4 / no-allow-non-conformance / no-repeat-headers / annexb / no-aud / no-hrd / info / hash=0 / no-temporal-layers / open-gop / min-keyint=25 / keyint=250 / gop-lookahead=0 / bframes=4 / b-adapt=2 / b-pyramid / bframe-bias=0 / rc-lookahead=40 / lookahead-slices=5 / scenecut=40 / radl=0 / no-intra-refresh / ctu=64 / min-cu-size=8 / no-rect / no-amp / max-tu-size=32 / tu-inter-depth=1 / tu-intra-depth=1 / limit-tu=0 / rdoq-level=0 / dynamic-rd=0.00 / no-ssim-rd / signhide / no-tskip / nr-intra=0 / nr-inter=0 / no-constrained-intra / strong-intra-smoothing / max-merge=2 / limit-refs=3 / no-limit-modes / me=1 / subme=7 / merange=57 / temporal-mvp / weightp / no-weightb / no-analyze-src-pics / deblock=0:0 / sao / no-sao-non-deblock / rd=3 / no-early-skip / rskip / no-fast-intra / no-tskip-fast / no-cu-lossless / no-b-intra / no-splitrd-skip / rdpenalty=0 / psy-rd=2.00 / psy-rdoq=0.00 / no-rd-refine / no-lossless / cbqpoffs=0 / crqpoffs=0 / rc=crf / crf=18.0 / qcomp=0.60 / qpstep=4 / stats-write=0 / stats-read=0 / ipratio=1.40 / pbratio=1.30 / aq-mode=1 / aq-strength=1.00 / cutree / zone-count=0 / no-strict-cbr / qg-size=32 / no-rc-grain / qpmax=69 / qpmin=0 / no-const-vbv / sar=1 / overscan=0 / videoformat=5 / range=0 / colorprim=1 / transfer=1 / colormatrix=1 / chromaloc=0 / display-window=0 / max-cll=0,0 / min-luma=0 / max-luma=1023 / log2-max-poc-lsb=8 / vui-timing-info / vui-hrd-info / slices=1 / no-opt-qp-pps / no-opt-ref-list-length-pps / no-multi-pass-opt-rps / scenecut-bias=0.05 / no-opt-cu-delta-qp / no-aq-motion / no-hdr / no-hdr-opt / no-dhdr10-opt / no-idr-recovery-sei / analysis-reuse-level=5 / scale-factor=0 / refine-intra=0 / refine-inter=0 / refine-mv=0 / no-limit-sao / ctu-info=0 / no-lowpass-dct / refine-mv-type=0 / copy-pic=1 / max-ausize-factor=1.0 / no-dynamic-refine / no-single-sei [url=/tag/1/][/url]
Default                     : Yes [url=/tag/1/][/url]
Forced                      : No [url=/tag/1/][/url]
Color range                 : Limited [url=/tag/1/][/url]
Color primaries             : BT.709 [url=/tag/1/][/url]
Transfer characteristics    : BT.709 [url=/tag/1/][/url]
Matrix coefficients         : BT.709 [url=/tag/1/][/url]
[url=/tag/1/][/url]
Audio #1 [url=/tag/1/][/url]
ID                          : 2 [url=/tag/1/][/url]
Format                      : DTS [url=/tag/1/][/url]
Format/Info                 : Digital Theater Systems [url=/tag/1/][/url]
Codec ID                    : A_DTS [url=/tag/1/][/url]
Duration                    : 2 h 20 min [url=/tag/1/][/url]
Bit rate mode               : Constant [url=/tag/1/][/url]
Bit rate                    : 768 kb/s [url=/tag/1/][/url]
Channel(s)                  : 6 channels [url=/tag/1/][/url]
Channel positions           : Front: L C R, Side: L R, LFE [url=/tag/1/][/url]
Sampling rate               : 48.0 kHz [url=/tag/1/][/url]
Frame rate                  : 93.750 FPS (512 SPF) [url=/tag/1/][/url]
Bit depth                   : 24 bits [url=/tag/1/][/url]
Compression mode            : Lossy [url=/tag/1/][/url]
Stream size                 : 770 MiB (14%) [url=/tag/1/][/url]
Title                       : Dub [License] [url=/tag/1/][/url]
Language                    : Russian [url=/tag/1/][/url]
Default                     : Yes [url=/tag/1/][/url]
Forced                      : No [url=/tag/1/][/url]
[url=/tag/1/][/url]
Audio #2 [url=/tag/1/][/url]
ID                          : 3 [url=/tag/1/][/url]
Format                      : AC-3 [url=/tag/1/][/url]
Format/Info                 : Audio Coding 3 [url=/tag/1/][/url]
Codec ID                    : A_AC3 [url=/tag/1/][/url]
Duration                    : 2 h 20 min [url=/tag/1/][/url]
Bit rate mode               : Constant [url=/tag/1/][/url]
Bit rate                    : 448 kb/s [url=/tag/1/][/url]
Channel(s)                  : 6 channels [url=/tag/1/][/url]
Channel positions           : Front: L C R, Side: L R, LFE [url=/tag/1/][/url]
Sampling rate               : 48.0 kHz [url=/tag/1/][/url]
Frame rate                  : 31.250 FPS (1536 SPF) [url=/tag/1/][/url]
Bit depth                   : 16 bits [url=/tag/1/][/url]
Compression mode            : Lossy [url=/tag/1/][/url]
Stream size                 : 449 MiB (8%) [url=/tag/1/][/url]
Title                       : Dub [License] [url=/tag/1/][/url]
Language                    : Ukrainian [url=/tag/1/][/url]
Service kind                : Complete Main [url=/tag/1/][/url]
Default                     : No [url=/tag/1/][/url]
Forced                      : No [url=/tag/1/][/url]
[url=/tag/1/][/url]
Audio #3 [url=/tag/1/][/url]
ID                          : 4 [url=/tag/1/][/url]
Format                      : AC-3 [url=/tag/1/][/url]
Format/Info                 : Audio Coding 3 [url=/tag/1/][/url]
Codec ID                    : A_AC3 [url=/tag/1/][/url]
Duration                    : 2 h 20 min [url=/tag/1/][/url]
Bit rate mode               : Constant [url=/tag/1/][/url]
Bit rate                    : 448 kb/s [url=/tag/1/][/url]
Channel(s)                  : 6 channels [url=/tag/1/][/url]
Channel positions           : Front: L C R, Side: L R, LFE [url=/tag/1/][/url]
Sampling rate               : 48.0 kHz [url=/tag/1/][/url]
Frame rate                  : 31.250 FPS (1536 SPF) [url=/tag/1/][/url]
Bit depth                   : 16 bits [url=/tag/1/][/url]
Compression mode            : Lossy [url=/tag/1/][/url]
Stream size                 : 449 MiB (8%) [url=/tag/1/][/url]
Title                       : Original [url=/tag/1/][/url]
Language                    : English [url=/tag/1/][/url]
Service kind                : Complete Main [url=/tag/1/][/url]
Default                     : No [url=/tag/1/][/url]
Forced                      : No [url=/tag/1/][/url]
[url=/tag/1/][/url]
Text #1 [url=/tag/1/][/url]
ID                          : 5 [url=/tag/1/][/url]
Format                      : UTF-8 [url=/tag/1/][/url]
Codec ID                    : S_TEXT/UTF8 [url=/tag/1/][/url]
Codec ID/Info               : UTF-8 Plain Text [url=/tag/1/][/url]
Duration                    : 2 h 18 min [url=/tag/1/][/url]
Bit rate                    : 61 b/s [url=/tag/1/][/url]
Count of elements           : 1459 [url=/tag/1/][/url]
Stream size                 : 62.8 KiB (0%) [url=/tag/1/][/url]
Title                       : Full [License] [url=/tag/1/][/url]
Language                    : Russian [url=/tag/1/][/url]
Default                     : No [url=/tag/1/][/url]
Forced                      : No [url=/tag/1/][/url]
[url=/tag/1/][/url]
Text #2 [url=/tag/1/][/url]
ID                          : 6 [url=/tag/1/][/url]
Format                      : UTF-8 [url=/tag/1/][/url]
Codec ID                    : S_TEXT/UTF8 [url=/tag/1/][/url]
Codec ID/Info               : UTF-8 Plain Text [url=/tag/1/][/url]
Duration                    : 2 h 12 min [url=/tag/1/][/url]
Bit rate                    : 76 b/s [url=/tag/1/][/url]
Count of elements           : 1454 [url=/tag/1/][/url]
Stream size                 : 74.0 KiB (0%) [url=/tag/1/][/url]
Title                       : Full [url=/tag/1/][/url]
Language                    : Russian [url=/tag/1/][/url]
Default                     : No [url=/tag/1/][/url]
Forced                      : No [url=/tag/1/][/url]
[url=/tag/1/][/url]
Text #3 [url=/tag/1/][/url]
ID                          : 7 [url=/tag/1/][/url]
Format                      : UTF-8 [url=/tag/1/][/url]
Codec ID                    : S_TEXT/UTF8 [url=/tag/1/][/url]
Codec ID/Info               : UTF-8 Plain Text [url=/tag/1/][/url]
Duration                    : 2 h 11 min [url=/tag/1/][/url]
Bit rate                    : 47 b/s [url=/tag/1/][/url]
Count of elements           : 1599 [url=/tag/1/][/url]
Stream size                 : 46.1 KiB (0%) [url=/tag/1/][/url]
Title                       : Full [url=/tag/1/][/url]
Language                    : English [url=/tag/1/][/url]
Default                     : No [url=/tag/1/][/url]
Forced                      : No [url=/tag/1/][/url]
[url=/tag/1/][/url]
Text #4 [url=/tag/1/][/url]
ID                          : 8 [url=/tag/1/][/url]
Format                      : UTF-8 [url=/tag/1/][/url]
Codec ID                    : S_TEXT/UTF8 [url=/tag/1/][/url]
Codec ID/Info               : UTF-8 Plain Text [url=/tag/1/][/url]
Duration                    : 2 h 12 min [url=/tag/1/][/url]
Bit rate                    : 51 b/s [url=/tag/1/][/url]
Count of elements           : 1777 [url=/tag/1/][/url]
Stream size                 : 50.4 KiB (0%) [url=/tag/1/][/url]
Title                       : SDH [url=/tag/1/][/url]
Language                    : English [url=/tag/1/][/url]
Default                     : No [url=/tag/1/][/url]
Forced                      : No [url=/tag/1/][/url]
[url=/tag/1/][/url]
Text #5 [url=/tag/1/][/url]
ID                          : 9 [url=/tag/1/][/url]
Format                      : UTF-8 [url=/tag/1/][/url]
Codec ID                    : S_TEXT/UTF8 [url=/tag/1/][/url]
Codec ID/Info               : UTF-8 Plain Text [url=/tag/1/][/url]
Duration                    : 2 h 12 min [url=/tag/1/][/url]
Bit rate                    : 63 b/s [url=/tag/1/][/url]
Count of elements           : 1777 [url=/tag/1/][/url]
Stream size                 : 61.9 KiB (0%) [url=/tag/1/][/url]
Title                       : SDH Colored [url=/tag/1/][/url]
Language                    : English [url=/tag/1/][/url]
Default                     : No [url=/tag/1/][/url]
Forced                      : No [url=/tag/1/][/url]
[url=/tag/1/][/url]
Menu [url=/tag/1/][/url]
00:00:00.000                : en:00:00:00.000 [url=/tag/1/][/url]
00:08:00.105                : en:00:08:00.105 [url=/tag/1/][/url]
00:11:31.983                : en:00:11:31.983 [url=/tag/1/][/url]
00:16:57.183                : en:00:16:57.183 [url=/tag/1/][/url]
00:21:09.643                : en:00:21:09.643 [url=/tag/1/][/url]
00:27:21.265                : en:00:27:21.265 [url=/tag/1/][/url]
00:33:03.356                : en:00:33:03.356 [url=/tag/1/][/url]
00:38:09.245                : en:00:38:09.245 [url=/tag/1/][/url]
00:42:29.130                : en:00:42:29.130 [url=/tag/1/][/url]
00:46:41.799                : en:00:46:41.799 [url=/tag/1/][/url]
00:54:14.334                : en:00:54:14.334 [url=/tag/1/][/url]
00:58:45.480                : en:00:58:45.480 [url=/tag/1/][/url]
01:04:55.266                : en:01:04:55.266 [url=/tag/1/][/url]
01:10:26.139                : en:01:10:26.139 [url=/tag/1/][/url]
01:16:28.250                : en:01:16:28.250 [url=/tag/1/][/url]
01:26:44.699                : en:01:26:44.699 [url=/tag/1/][/url]
01:32:06.938                : en:01:32:06.938 [url=/tag/1/][/url]
01:36:22.443                : en:01:36:22.443 [url=/tag/1/][/url]
01:41:53.149                : en:01:41:53.149 [url=/tag/1/][/url]
01:49:48.415                : en:01:49:48.415 [url=/tag/1/][/url]
01:53:45.610                : en:01:53:45.610 [url=/tag/1/][/url]
01:58:52.083                : en:01:58:52.083 [url=/tag/1/][/url]
02:07:20.132                : en:02:07:20.132 [url=/tag/1/][/url]
02:13:40.095                : en:02:13:40.095 [url=/tag/1/][/url]



[+] Внимание!
[url=/tag/1/][/url]
- H.265/HEVC (High Efficiency Video Coding) - это новый стандарт кодирования видео. [url=/tag/1/][/url]
- Стандарт H.265/HEVC является логическим продолжением стандарта H.264/AVC (Advanced Video Coding), и характеризуется более эффективными алгоритмами сжатия, а также поддержкой высокого разрешения вплоть до 8K UHD (8192x4320). Первая версия стандарта H.265 была опубликована в начале 2013 года.  [url=/tag/1/][/url]
- Рипы в фомате HEVC поддерживается не всеми аппаратными проигрывателями. [url=/tag/1/][/url]
- Для корректного воспроизведения может потребоваться обновление ПО. [url=/tag/1/][/url]
- Владельцам несовместимого железа просьба не беспокоить, есть альтернативные релизы. [url=/tag/1/][/url]
[url=/tag/1/][/url]



Скриншоты:
[+] Всего файлов в раздаче - 1:
Red.Sparrow.(2018).BDRip.1080p.FullHD.60FPS.HEVC.[Cryptor].mkv5.35 GB

Текущая раздача:
ДатаКомментарии    РазмерПиры
2018-05-15 U Красный воробей / Red Sparrow (2018) BDRip-HEVC 1080p | 60 fps | Лицензия 5.35 GB ↑ 79 ↓ 57

Показать еще раздачи по запросу красный:
2018-05-17 U Красный воробей / Red Sparrow (2018) BDRip от HQ-ViDEO | Лицензия 2.18 GB ↑ 46 ↓ 21
2018-05-16 U Красный залив / Red Billabong (2016) BDRip 1080p | L1 9.33 GB ↑ 40 ↓ 23
2018-05-14 U Красный залив / Red Billabong (2016) WEBRip | L1 1.33 GB ↑ 282 ↓ 57
2018-05-14 U Красный воробей / Red Sparrow (2018) BDRip от ExKinoRay | Лицензия 2.18 GB ↑ 81 ↓ 27
2018-05-14 U Красный воробей / Red Sparrow (2018) BDRip-AVC от ExKinoRay | D, P | Лицензия 2.86 GB ↑ 59 ↓ 22
2018-05-14 U Красный воробей / Red Sparrow (2018) HDRip от Scarabey | Лицензия 1.45 GB ↑ 81 ↓ 29
2018-05-14 U Красный воробей / Red Sparrow (2018) BDRip-AVC от HELLYWOOD | Лицензия 2.18 GB ↑ 65 ↓ 13

Отзывы
Зарегистрируйтесь чтобы добавить комментарий.
Обратная связь
Copyleft ©