↑↓Torrent.by
Поиск
Логин: Регистрация
Пароль: Восстановить пароль
Загрузка...

Миссия: невыполнима 2 / Mission: Impossible II (2000) BDRip-HEVC 1080p от ХиМиК | P, P2, A

Скачать missiya-nevypolnima-2-mission-impossible-ii-2000-bdrip-hevc-1080p-ot-himik-p-p2-a.torrent
U Магнитная ссылка Размер: 9.37 GB Раздают: 38 Качают: 17 Добавлен: 2018-05-16 09:25:34
Миссия: невыполнима 2 / Mission: Impossible II (2000) BDRip-HEVC 1080p от ХиМиК | P, P2, A

Название: Миссия: невыполнима 2
Оригинальное название: Mission: Impossible II
Год выхода: 2000
Жанр: боевик, триллер, приключения
Режиссер: Джон Ву
В ролях: Том Круз, Дюгрэй Скотт, Тэнди Ньютон, Ричард Роксбург, Винг Реймз, Джон Полсон, Брендан Глисон, Раде Шербеджия, Уильям Мапотер, Энтони Хопкинс...

О фильме:
Если мир внезапно оказывается перед лицом ужасной катастрофы, есть лишь один человек, который может исправить это ужасное положение. Его имя Итан Хант, он прирожденный специалист по разрешению самых неразрешимых ситуаций. Теперь у Итана — новый, строгий начальник, новая очаровательная возлюбленная, новый коварный противник и новое задание, которое простому смертному просто не по плечу. Но Итан Хант не был бы Итаном Хантом, если бы не смог с блеском выполнить очередную невыполнимую миссию: справиться с кровожадными террористами и спасти планету от ужасного, смертельного вируса!

Страна: США, Германия
Студия: Cruise/Wagner Productions, Munich Film Partners & Company (MFP) MI2 Productions, Paramount Pictures
Продолжительность: 02:03:35
Перевод: Профессиональный многоголосый, профессиональный двухголосый, авторский одноголосый

Файл
Кодек: HEVC x265 10 bit
Качество: BDRip-HEVC 1080p
Видео: 1920x794 (2.40:1), 8609 Кбит/сек, 0.236 бит/(Пиксели*Кадры), 23.976 (24000/1001) кадр/сек, HEVC (Main10@L.4.1@High) 10 бит
Звук:
Русская, AC3, 448 Кбит/сек, Front: L C R, Side: L R, LFE, 48,0 КГц (MVO Позитив)
Русская, AC3, 448 Кбит/сек, Front: L C R, Side: L R, LFE, 48,0 КГц (DVO Гланц и Королёва)
Русская, AC3, 448 Кбит/сек, Front: L C R, Side: L R, LFE, 48,0 КГц (AVO Гаврилов)
Русская, AC3, 448 Кбит/сек, Front: L C R, Side: L R, LFE, 48,0 КГц (AVO Визгунов)
Английская, AC3, 448 Кбит/сек, Front: L C R, Side: L R, LFE, 48,0 КГц (Оригинал)
Субтитры: русские, английские
Разделение по главам: есть

Семпл

Релиз от: от XuMuK
[+] MediaInfo

Общее
Уникальный идентификатор                 : 271896378040753625124340559552700116751 (0xCC8D566E854C2A944D43C982C59E6F0F)
Полное имя                               : H:HEVC 210 BITMission ImpossibleMission Impossible_2_2000_BDRip_1080p_[HEVC]_10bit_by XuMuK.mkv
Формат                                   : Matroska
Версия формата                           : Version 4 / Version 2
Размер файла                             : 9,37 Гбайт
Продолжительность                        : 2 ч. 3 м.
Общий поток                              : 10,9 Мбит/сек
Название фильма                          : HEVC by XuMuK
Дата кодирования                         : UTC 2018-05-15 04:03:31
Программа кодирования                    : mkvmerge v23.0.0 ('The Bride Said No') 64-bit
Библиотека кодирования                   : libebml v1.3.6 + libmatroska v1.4.9
Обложка                                  : Yes
Attachments                              : cover.jpg

Видео
Идентификатор                            : 1
Формат                                   : HEVC
Формат/Информация                        : High Efficiency Video Coding
Профиль формата                          : Main 10@L4.1@High
Идентификатор кодека                     : V_MPEGH/ISO/HEVC
Продолжительность                        : 2 ч. 3 м.
Битрейт                                  : 8609 Кбит/сек
Ширина                                   : 1920 пикселей
Высота                                   : 794 пикселя
Соотношение сторон                       : 2,40:1
Режим частоты кадров                     : Постоянный
Частота кадров                           : 23,976 (24000/1001) кадра/сек
Цветовое пространство                    : YUV
Субдискретизация насыщенности            : 4:2:0
Битовая глубина                          : 10 бит
Бит/(Пиксели*Кадры)                      : 0.236
Размер потока                            : 7,43 Гбайт (79%)
Библиотека кодирования                   : x265 2.7+17-2e370d98c806:[Windows][GCC 8.0.1][64 bit] 10bit
Настройки программы                      : cpuid=1173503 / frame-threads=4 / numa-pools=16 / wpp / no-pmode / no-pme / no-psnr / no-ssim / log-level=2 / input-csp=1 / input-res=1920x794 / interlace=0 / total-frames=177792 / level-idc=41 / high-tier=1 / uhd-bd=0 / ref=5 / no-allow-non-conformance / no-repeat-headers / annexb / no-aud / no-hrd / info / hash=0 / no-temporal-layers / open-gop / min-keyint=23 / keyint=240 / gop-lookahead=0 / bframes=5 / b-adapt=2 / no-b-pyramid / bframe-bias=0 / rc-lookahead=60 / lookahead-slices=4 / scenecut=40 / radl=0 / no-intra-refresh / ctu=64 / min-cu-size=8 / rect / amp / max-tu-size=32 / tu-inter-depth=4 / tu-intra-depth=4 / limit-tu=1 / rdoq-level=1 / dynamic-rd=0.00 / no-ssim-rd / signhide / no-tskip / nr-intra=0 / nr-inter=0 / no-constrained-intra / no-strong-intra-smoothing / max-merge=3 / limit-refs=2 / limit-modes / me=3 / subme=7 / merange=57 / temporal-mvp / weightp / weightb / no-analyze-src-pics / deblock=-3:-3 / no-sao / no-sao-non-deblock / rd=6 / no-early-skip / rskip / no-fast-intra / no-tskip-fast / no-cu-lossless / b-intra / no-splitrd-skip / rdpenalty=0 / psy-rd=2.00 / psy-rdoq=1.00 / no-rd-refine / no-lossless / cbqpoffs=-2 / crqpoffs=-2 / rc=crf / crf=18.0 / qcomp=0.65 / qpstep=4 / stats-write=0 / stats-read=0 / vbv-maxrate=50000 / vbv-bufsize=50000 / vbv-init=0.9 / crf-max=0.0 / crf-min=0.0 / ipratio=1.40 / pbratio=1.30 / aq-mode=1 / aq-strength=1.00 / cutree / zone-count=1 / zones: / start-frame=171155 / end-frame=177792 / qp=35 / no-strict-cbr / qg-size=32 / no-rc-grain / qpmax=69 / qpmin=0 / no-const-vbv / sar=1 / overscan=0 / videoformat=5 / range=0 / colorprim=1 / transfer=1 / colormatrix=1 / chromaloc=0 / display-window=0 / max-cll=0,0 / min-luma=0 / max-luma=1023 / log2-max-poc-lsb=8 / vui-timing-info / vui-hrd-info / slices=1 / no-opt-qp-pps / no-opt-ref-list-length-pps / no-multi-pass-opt-rps / scenecut-bias=0.05 / no-opt-cu-delta-qp / no-aq-motion / no-hdr / no-hdr-opt / no-dhdr10-opt / no-idr-recovery-sei / analysis-reuse-level=5 / scale-factor=0 / refine-intra=0 / refine-inter=0 / refine-mv=0 / no-limit-sao / ctu-info=0 / no-lowpass-dct / refine-mv-type=0 / copy-pic=1 / max-ausize-factor=1.0 / no-dynamic-refine
Default                                  : Да
Forced                                   : Нет
Цветовой диапазон                        : Limited
Основные цвета                           : BT.709
Характеристики трансфера                 : BT.709
Коэффициенты матрицы                     : BT.709

Аудио #1
Идентификатор                            : 2
Формат                                   : AC-3
Формат/Информация                        : Audio Coding 3
Идентификатор кодека                     : A_AC3
Продолжительность                        : 2 ч. 3 м.
Вид битрейта                             : Постоянный
Битрейт                                  : 448 Кбит/сек
Каналы                                   : 6 каналов
Расположение каналов                     : Front: L C R, Side: L R, LFE
Частота                                  : 48,0 КГц
Частота кадров                           : 31,250 кадров/сек (1536 SPF)
Битовая глубина                          : 16 бит
Метод сжатия                             : С потерями
Размер потока                            : 396 Мбайт (4%)
Заголовок                                : MVO Позитив
Язык                                     : Russian
ServiceKind                              : Complete Main
Default                                  : Да
Forced                                   : Нет

Аудио #2
Идентификатор                            : 3
Формат                                   : AC-3
Формат/Информация                        : Audio Coding 3
Идентификатор кодека                     : A_AC3
Продолжительность                        : 2 ч. 3 м.
Вид битрейта                             : Постоянный
Битрейт                                  : 448 Кбит/сек
Каналы                                   : 6 каналов
Расположение каналов                     : Front: L C R, Side: L R, LFE
Частота                                  : 48,0 КГц
Частота кадров                           : 31,250 кадров/сек (1536 SPF)
Битовая глубина                          : 16 бит
Метод сжатия                             : С потерями
Размер потока                            : 396 Мбайт (4%)
Заголовок                                : DVO Гланц и Королёва
Язык                                     : Russian
ServiceKind                              : Complete Main
Default                                  : Нет
Forced                                   : Нет

Аудио #3
Идентификатор                            : 4
Формат                                   : AC-3
Формат/Информация                        : Audio Coding 3
Идентификатор кодека                     : A_AC3
Продолжительность                        : 2 ч. 3 м.
Вид битрейта                             : Постоянный
Битрейт                                  : 448 Кбит/сек
Каналы                                   : 6 каналов
Расположение каналов                     : Front: L C R, Side: L R, LFE
Частота                                  : 48,0 КГц
Частота кадров                           : 31,250 кадров/сек (1536 SPF)
Битовая глубина                          : 16 бит
Метод сжатия                             : С потерями
Размер потока                            : 396 Мбайт (4%)
Заголовок                                : AVO Гаврилов
Язык                                     : Russian
ServiceKind                              : Complete Main
Default                                  : Нет
Forced                                   : Нет

Аудио #4
Идентификатор                            : 5
Формат                                   : AC-3
Формат/Информация                        : Audio Coding 3
Идентификатор кодека                     : A_AC3
Продолжительность                        : 2 ч. 3 м.
Вид битрейта                             : Постоянный
Битрейт                                  : 448 Кбит/сек
Каналы                                   : 6 каналов
Расположение каналов                     : Front: L C R, Side: L R, LFE
Частота                                  : 48,0 КГц
Частота кадров                           : 31,250 кадров/сек (1536 SPF)
Битовая глубина                          : 16 бит
Метод сжатия                             : С потерями
Размер потока                            : 396 Мбайт (4%)
Заголовок                                : AVO Визгунов
Язык                                     : Russian
ServiceKind                              : Complete Main
Default                                  : Нет
Forced                                   : Нет

Аудио #5
Идентификатор                            : 6
Формат                                   : AC-3
Формат/Информация                        : Audio Coding 3
Идентификатор кодека                     : A_AC3
Продолжительность                        : 2 ч. 3 м.
Вид битрейта                             : Постоянный
Битрейт                                  : 448 Кбит/сек
Каналы                                   : 6 каналов
Расположение каналов                     : Front: L C R, Side: L R, LFE
Частота                                  : 48,0 КГц
Частота кадров                           : 31,250 кадров/сек (1536 SPF)
Битовая глубина                          : 16 бит
Метод сжатия                             : С потерями
Размер потока                            : 396 Мбайт (4%)
Заголовок                                : Оригинал
Язык                                     : English
ServiceKind                              : Complete Main
Default                                  : Нет
Forced                                   : Нет

Текст #1
Идентификатор                            : 7
Формат                                   : UTF-8
Идентификатор кодека                     : S_TEXT/UTF8
Идентификатор кодека/Информация          : UTF-8 Plain Text
Продолжительность                        : 1 ч. 58 м.
Битрейт                                  : 60 бит/сек
ElementCount                             : 809
Размер потока                            : 52,1 Кбайт (0%)
Заголовок                                : RUS
Язык                                     : Russian
Default                                  : Да
Forced                                   : Нет

Текст #2
Идентификатор                            : 8
Формат                                   : UTF-8
Идентификатор кодека                     : S_TEXT/UTF8
Идентификатор кодека/Информация          : UTF-8 Plain Text
Продолжительность                        : 1 ч. 57 м.
Битрейт                                  : 36 бит/сек
ElementCount                             : 887
Размер потока                            : 31,7 Кбайт (0%)
Заголовок                                : ENG
Язык                                     : English
Default                                  : Нет
Forced                                   : Нет

Меню
00:00:00.000                             : en:Old Friend
00:05:57.023                             : en:Holiday
00:10:39.347                             : en:I See You Found It
00:18:03.415                             : en:Catch Me
00:23:47.342                             : en:Sean Ambrose
00:34:47.877                             : en:A Proper Welcome
00:45:40.070                             : en:Don't Turn Around
00:56:08.406                             : en:A Touch of the Flu
01:05:07.695                             : en:Biocyte
01:11:38.961                             : en:The Last Strain
01:18:24.741                             : en:I Guess I Lied
01:25:59.904                             : en:Supply and Demand
01:35:40.109                             : en:Smile
01:40:16.802                             : en:Race Against Time
01:49:33.692                             : en:Mano a Mano
01:53:59.165                             : en:Destroyed By Fire
01:58:58.589                             : en:End Credits



Скриншоты:
[+] Всего файлов в раздаче - 1:
Mission Impossible_2_2000_BDRip_1080p_[HEVC]_10bit_by XuMuK.mkv9.37 GB

Текущая раздача:
ДатаКомментарии    РазмерПиры
2018-05-16 U Миссия: невыполнима 2 / Mission: Impossible II (2000) BDRip-HEVC 1080p от ХиМиК | P, P2, A 9.37 GB ↑ 38 ↓ 17

Показать еще раздачи по запросу миссия:
Сегодня U Советские группы войск: миссия в Европе [01-02 из 04] (2018) SATRip 1К1.01 GB ↑ 30 ↓ 6
2018-03-10 U Миссия невыполнима: Племя изгоев / Mission: Impossible - Rogue Nation (2015) BDRip-HEVC 1080p от ХиМиК | D, A 7.86 GB ↑ 82 ↓ 40
2018-02-10 U Серия книг - Миссия «Космос». Подарочные издания [4 книги] (2014-2018) PDF 337.93 MB ↑ 319 ↓ 24
2018-01-21 U Миссия на Марс / Mission to Mars (2000) BDRip-AVC от DrVampir | P, P2, A 2.18 GB ↑ 18 ↓ 40
2018-01-18 U Миссия «Серенити» / Serenity (2005) UHD BDRemux 2160p от ExKinoRay | 4K | HDR | D, P2, A 54.09 GB ↑ 38 ↓ 24
2017-09-23 U Миссия Сатурн / Mission Saturn (2017) HDTVRip 720p | P1 1.70 GB ↑ 390 ↓ 51
2017-09-23 U Миссия Сатурн / Mission Saturn (2017) HDTVRip от Kaztorrents | P1 2К705.74 MB ↑ 304 ↓ 35

Отзывы
Зарегистрируйтесь чтобы добавить комментарий.
Обратная связь
Copyleft ©