↑↓Torrent.by
Поиск
Логин: Регистрация
Пароль: Восстановить пароль
Загрузка...

Мстители Гримм: Временные войны / Avengers Grimm: Time Wars (2018) WEBRip | L2

Скачать mstiteli-grimm-vremennye-voyny-avengers-time-wars-2018-webrip-l2.torrent
U Магнитная ссылка Размер: 1.23 GB Раздают: 98 Качают: 39 Добавлен: 2018-05-16 11:17:57
Мстители Гримм: Временные войны /  Avengers Grimm: Time Wars (2018) WEBRip | L2

Название: Мстители Гримм: Временные войны
Оригинальное название: Avengers Grimm: Time Wars
Год выхода: 2018
Жанр: Фэнтези, боевик, приключения
Режиссер: Максимилиан Эльфелдт
В ролях: Мара Фэйрклаф, Кристина Личчиарди, Лорен Паркинсон, Майкл Марсель, Эрик Фельтес, Рэндолл Ярбро и другие
О фильме:
Когда Румпельштильцхен пытается захватить мир раз и навсегда, Мстители Гримм должны отследить его во времени и победить его.

Страна: США, Asylum
Продолжительность: 01:28:08
Перевод: Любительский (двухголосый закадровый) | HiWay Grope

Файл
Кодек: XviD
Качество: WEBRip
Видео: 720x400, 23.976 fps, ~1800 kbps, 0.26 bit/pixel
Звук:
Аудио rus: AC3, 48 kHz, 2 ch, 192 Kbps
Субтитры: отсутствуют

Реклама: присутствует

Семпл

Релиз от: HiWay Grope


[+] MediaInfo:

General
Complete name                            : E:Avengers.Grimm.Time.Wars.2018.WEBRip.HiWayGropeAvengers.Grimm.Time.Wars.2018.WEB-DLRip.HiWayGrope.avi
Format                                   : AVI
Format/Info                              : Audio Video Interleave
Format profile                           : OpenDML
File size                                : 1.23 GiB
Duration                                 : 1h 28mn
Overall bit rate                         : 1 999 Kbps
Writing application                      : Lavf57.71.100

Video
ID                                       : 0
Format                                   : MPEG-4 Visual
Format profile                           : Advanced Simple@L5
Format settings, BVOP                    : 1
Format settings, QPel                    : No
Format settings, GMC                     : No warppoints
Format settings, Matrix                  : Default (H.263)
Codec ID                                 : XVID
Codec ID/Hint                            : XviD
Duration                                 : 1h 28mn
Bit rate                                 : 1 795 Kbps
Width                                    : 720 pixels
Height                                   : 400 pixels
Display aspect ratio                     : 16:9
Frame rate                               : 23.976 (24000/1001) fps
Color space                              : YUV
Chroma subsampling                       : 4:2:0
Bit depth                                : 8 bits
Scan type                                : Progressive
Compression mode                         : Lossy
Bits/(Pixel*Frame)                       : 0.260
Stream size                              : 1.10 GiB (90%)
Writing library                          : XviD 67

Audio
ID                                       : 1
Format                                   : AC-3
Format/Info                              : Audio Coding 3
Mode extension                           : CM (complete main)
Format settings, Endianness              : Big
Codec ID                                 : 2000
Duration                                 : 1h 28mn
Bit rate mode                            : Constant
Bit rate                                 : 192 Kbps
Channel(s)                               : 2 channels
Channel positions                        : Front: L R
Sampling rate                            : 48.0 KHz
Frame rate                               : 31.250 fps (1536 spf)
Bit depth                                : 16 bits
Compression mode                         : Lossy
Stream size                              : 121 MiB (10%)
Alignment                                : Aligned on interleaves
Interleave, duration                     : 32 ms (0.77 video frame)




Скриншоты:
[+] Всего файлов в раздаче - 1:
Avengers.Grimm.Time.Wars.2018.WEB-DLRip.HiWayGrope.avi1.23 GB

Текущая раздача:
ДатаКомментарии    РазмерПиры
2018-05-16 U Мстители Гримм: Временные войны / Avengers Grimm: Time Wars (2018) WEBRip | L2 1.23 GB ↑ 98 ↓ 39

Показать еще раздачи по запросу мстители:
2019-01-05 U Мстители: Война бесконечности / Avengers: Infinity War (2018) HybridRip-HEVC 1080p от M@kSIMus | D | Open Matte 7.02 GB ↑ 61 ↓ 13
2019-01-02 U Мстители: Война бесконечности / Avengers: Infinity War (2018) HybridRip-AVC | D | Open Matte 4.35 GB ↑ 171 ↓ 106
2018-12-13 U Мстители: Финал / Avengers: Endgame (2019) HDRip 1080p | Тизер 715.26 MB ↑ 190 ↓ 54
2018-12-08 U СуперБобровы. Народные мстители (2018) WEB-DLRip-AVC от Generalfilm | iTunes 1К1.15 GB ↑ 175 ↓ 53
2018-12-07 U СуперБобровы. Народные мстители (2017) WEB-DLRip от GeneralFilm | iTunes 744.62 MB ↑ 151 ↓ 35
2018-12-06 U СуперБобровы. Народные мстители (2017) WEB-DL 720p | iTunes 2.79 GB ↑ 349 ↓ 111
2018-12-06 U СуперБобровы. Народные мстители (2018) WEB-DLRip-AVC от OlLanDGroup | iTunes 1.39 GB ↑ 456 ↓ 236

Отзывы
Зарегистрируйтесь чтобы добавить комментарий.
Обратная связь
Copyleft ©