↑↓Torrent.by
Поиск
Логин: Регистрация
Пароль: Восстановить пароль
Загрузка...

Мстители Гримм: Временные войны / Avengers Grimm: Time Wars (2018) WEBRip 720p | L2

Скачать mstiteli-grimm-vremennye-voyny-avengers-time-wars-2018-webrip-720p-l2.torrent
U Магнитная ссылка Размер: 1.96 GB Раздают: 42 Качают: 38 Добавлен: 2018-05-16 11:18:13
Мстители Гримм: Временные войны /  Avengers Grimm: Time Wars (2018) WEBRip 720p | L2

Название: Мстители Гримм: Временные войны
Оригинальное название: Avengers Grimm: Time Wars
Год выхода: 2018
Жанр: Фэнтези, боевик, приключения
Режиссер: Максимилиан Эльфелдт
В ролях: Мара Фэйрклаф, Кристина Личчиарди, Лорен Паркинсон, Майкл Марсель, Эрик Фельтес, Рэндолл Ярбро и другие
О фильме:
Когда Румпельштильцхен пытается захватить мир раз и навсегда, Мстители Гримм должны отследить его во времени и победить его.

Страна: США, Asylum
Продолжительность: 01:28:08
Перевод: Любительский (двухголосый закадровый) | HiWay Grope

Файл
Кодек: MPEG-4 AVC/x.264
Качество: WEBRip 720p
Видео: 1280x720, 23.976 fps, ~2986 kbps, 0.135 bit/pixel
Звук:
Аудио rus: AC3, 48 kHz, 2 ch, 192 Kbps
Субтитры: отсутствуют

Реклама: присутствует

Семпл

Релиз от: HiWay Grope


[+] MediaInfo:

General
Unique ID                                : 237425688798056266107150615354030335430 (0xB29E863C9B78B4078400615A83BEA5C6)
Complete name                            : E:Avengers.Grimm.Time.Wars.2018.720p.WEBRip.HiWayGropeAvengers.Grimm.Time.Wars.2018.720p.WEB-DLRip.HiWayGrope.mkv
Format                                   : Matroska
Format version                           : Version 4 / Version 2
File size                                : 1.96 GiB
Duration                                 : 1h 28mn
Overall bit rate mode                    : Variable
Overall bit rate                         : 3 180 Kbps
Encoded date                             : UTC 2018-05-15 22:29:26
Writing application                      : mkvmerge v17.0.0 ('Be Ur Friend') 64-bit
Writing library                          : libebml v1.3.5 + libmatroska v1.4.8

Video
ID                                       : 1
Format                                   : AVC
Format/Info                              : Advanced Video Codec
Format profile                           : High@L5
Format settings, CABAC                   : Yes
Format settings, ReFrames                : 4 frames
Codec ID                                 : V_MPEG4/ISO/AVC
Duration                                 : 1h 28mn
Bit rate mode                            : Variable
Bit rate                                 : 2 986 Kbps
Maximum bit rate                         : 12.0 Mbps
Width                                    : 1 280 pixels
Height                                   : 720 pixels
Display aspect ratio                     : 16:9
Frame rate mode                          : Constant
Frame rate                               : 23.976 (24000/1001) fps
Standard                                 : NTSC
Color space                              : YUV
Chroma subsampling                       : 4:2:0
Bit depth                                : 8 bits
Scan type                                : Progressive
Bits/(Pixel*Frame)                       : 0.135
Stream size                              : 1.84 GiB (94%)
Language                                 : English
Default                                  : Yes
Forced                                   : No
Color range                              : Limited
Color primaries                          : BT.709
Transfer characteristics                 : BT.709
Matrix coefficients                      : BT.709

Audio
ID                                       : 2
Format                                   : AC-3
Format/Info                              : Audio Coding 3
Mode extension                           : CM (complete main)
Format settings, Endianness              : Big
Codec ID                                 : A_AC3
Duration                                 : 1h 28mn
Bit rate mode                            : Constant
Bit rate                                 : 192 Kbps
Channel(s)                               : 2 channels
Channel positions                        : Front: L R
Sampling rate                            : 48.0 KHz
Frame rate                               : 31.250 fps (1536 spf)
Compression mode                         : Lossy
Stream size                              : 121 MiB (6%)
Default                                  : Yes
Forced                                   : No




Скриншоты:
[+] Всего файлов в раздаче - 1:
Avengers.Grimm.Time.Wars.2018.720p.WEB-DLRip.HiWayGrope.mkv1.96 GB

Текущая раздача:
ДатаКомментарии    РазмерПиры
2018-05-16 U Мстители Гримм: Временные войны / Avengers Grimm: Time Wars (2018) WEBRip 720p | L2 1.96 GB ↑ 42 ↓ 38

Показать еще раздачи по запросу мстители:
2018-05-22 U Мстители: Война бесконечности / Avengers: Infinity War (2018) TS (PROPER) | RusFilm 2.05 GB ↑ 86 ↓ 64
2018-05-22 U Мстители: Война бесконечности / Avengers: Infinity War (2018) TS-AVC Proper | D 3.04 GB ↑ 209 ↓ 150
2018-05-22 U Мстители: Война бесконечности / Avengers: Infinity War (2018) TS (PROPER) 720p | RusFilm 3.82 GB ↑ 144 ↓ 123
2018-05-16 U Мстители Гримм: Временные войны / Avengers Grimm: Time Wars (2018) WEBRip | L2 1.23 GB ↑ 70 ↓ 33
2018-05-14 U Мстители: Война бесконечности / Avengers: Infinity War (2018) TS | Line 1.48 GB ↑ 160 ↓ 86
2018-02-06 U Мстители: Война бесконечности / Avengers: Infinity War (2018) DCPRip 2К | Трейлер 1К784.36 MB ↑ 270 ↓ 44
2017-12-10 U Мстители: Эра Альтрона / Avengers: Age of Ultron (2015) BDRip-HEVC 1080p от ХиМиК | D, A 5.24 GB ↑ 154 ↓ 32

Отзывы
Зарегистрируйтесь чтобы добавить комментарий.
Обратная связь
Copyleft ©