↑↓Torrent.by
Поиск
Логин: Регистрация
Пароль: Восстановить пароль
Загрузка...

Ночные игры / Game Night (2018) BDRip-AVC от OlLanDGroup | iTunes

Скачать nochnye-igry-game-night-2018-bdrip-avc-ot-ollandgroup-itunes.torrent
U Магнитная ссылка Размер: 1.99 GB Раздают: 40 Качают: 15 Добавлен: 2018-05-16 11:18:19
Ночные игры / Game Night (2018) BDRip-AVC от OlLanDGroup | iTunes

Ночные игры / Game Night
«This is not a game»

Год выпуска: 2018
Страна: США
Производство: Aggregate Films, Davis Entertainment, New Line Cinema
Жанр:  Триллер, комедия, криминал, детектив

Режиссёр: Джон Фрэнсис Дейли, Джонатан М. Голдштейн
В ролях: Джейсон Бейтмен, Рэйчел МакАдамс, Кайл Чандлер, Шэрон Хорган, Билли Магнуссен, Ламорн Моррис, Кайли Банбери, Джесси Племонс, Майкл С. Холл, Дэнни Хьюстон

Перевод: Дублированный | iTunes
Субтитры: Русские (форс., полн.), Английские (full, SDH)
Реклама: Отсутствует

Описание: История Макса и Энни, которые вместе с другими парами каждую неделю устраивают так называемые «ночные игры». И вот однажды харизматичный брат Макса Брукс организовывает вечер по разгадыванию «убийственного» квеста с «ряжеными» головорезами и агентами ФБР. Получается, похищение Брукса в тот вечер - это розыгрыш... или нет?

Качество: BDRip-AVC
Продолжительность: 01:40:06

Формат: MKV
Видео кодек: MPEG-4 AVC
Аудио кодек: AC3
Видео: 1024x426 (2.40:1), 23,976 fps, x264 ~2 005 kbps avg, 0.192 bit/pixel
Аудио: 48 kHz, AC3 Dolby Digital, 3/2 (L,C,R,l,r) + LFE ch, ~384.00 kbps avg | RUS (iTunes)
Аудио: 48 kHz, AC3 Dolby Digital, 3/2 (L,C,R,l,r) + LFE ch, ~448.00 kbps avg | ENG

Дата премьеры (мир): 15 февраля 2018
Дата премьеры (РФ): 22 февраля 2018, «Каро-Премьер»

Релиз: Rip by:


[+] MediaInfo

Общее
Уникальный идентификатор                 : 222818078148839590200160626362077000354 (0xA7A1336D3FE585E2A4ECF8696709B2A2)
Полное имя                               : E:OlLanDGroupGame.Night.2018.BDRip(AVC).OlLanDGroup.mkv
Формат                                   : Matroska
Версия формата                           : Version 4 / Version 2
Размер файла                             : 1,99 Гбайт
Продолжительность                        : 1 ч. 40 м.
Общий поток                              : 2840 Кбит/сек
Название фильма                          : Game.Night.2018   #TorpedoUK#
Дата кодирования                         : UTC 2018-05-15 16:55:02
Программа кодирования                    : mkvmerge v8.3.0 ('Over the Horizon') 64bit
Библиотека кодирования                   : libebml v1.3.1 + libmatroska v1.4.2

Видео
Идентификатор                            : 1
Формат                                   : AVC
Формат/Информация                        : Advanced Video Codec
Профиль формата                          : High@L4.1
Параметр CABAC формата                   : Да
Параметр ReFrames формата                : 10 кадров
Идентификатор кодека                     : V_MPEG4/ISO/AVC
Продолжительность                        : 1 ч. 40 м.
Битрейт                                  : 2005 Кбит/сек
Ширина                                   : 1024 пикселя
Высота                                   : 426 пикселей
Соотношение сторон                       : 2,40:1
Режим частоты кадров                     : Постоянный
Частота кадров                           : 23,976 (24000/1001) кадра/сек
Цветовое пространство                    : YUV
Субдискретизация насыщенности            : 4:2:0
Битовая глубина                          : 8 бит
Тип развёртки                            : Прогрессивная
Бит/(Пиксели*Кадры)                      : 0.192
Размер потока                            : 1,40 Гбайт (71%)
Библиотека кодирования                   : x264 core 146 r2538 121396c
Настройки программы                      : cabac=1 / ref=10 / deblock=1:-3:-3 / analyse=0x3:0x133 / me=umh / subme=11 / psy=1 / psy_rd=1.00:0.04 / mixed_ref=1 / me_range=48 / chroma_me=1 / trellis=2 / 8x8dct=1 / cqm=0 / deadzone=21,11 / fast_pskip=1 / chroma_qp_offset=-3 / threads=6 / lookahead_threads=1 / sliced_threads=0 / nr=0 / decimate=1 / interlaced=0 / bluray_compat=0 / constrained_intra=0 / bframes=10 / b_pyramid=2 / b_adapt=2 / b_bias=0 / direct=3 / weightb=1 / open_gop=0 / weightp=2 / keyint=240 / keyint_min=23 / scenecut=40 / intra_refresh=0 / rc_lookahead=40 / rc=2pass / mbtree=0 / bitrate=2005 / ratetol=1.0 / qcomp=0.60 / qpmin=0 / qpmax=69 / qpstep=4 / cplxblur=20.0 / qblur=0.5 / vbv_maxrate=50000 / vbv_bufsize=62500 / nal_hrd=none / filler=0 / ip_ratio=1.40 / pb_ratio=1.30 / aq=1:1.00
Язык                                     : English
Default                                  : Да
Forced                                   : Нет

Аудио #1
Идентификатор                            : 2
Формат                                   : AC-3
Формат/Информация                        : Audio Coding 3
Расширение режима                        : CM (complete main)
Параметр Endianness формата              : Big
Идентификатор кодека                     : A_AC3
Продолжительность                        : 1 ч. 40 м.
Вид битрейта                             : Постоянный
Битрейт                                  : 384 Кбит/сек
Каналы                                   : 6 каналов
Расположение каналов                     : Front: L C R, Side: L R, LFE
Частота                                  : 48,0 КГц
Частота кадров                           : 31,250 кадров/сек (1536 spf)
Битовая глубина                          : 16 бит
Метод сжатия                             : С потерями
Размер потока                            : 275 Мбайт (14%)
Заголовок                                : iTunes
Язык                                     : Russian
Default                                  : Да
Forced                                   : Нет

Аудио #2
Идентификатор                            : 3
Формат                                   : AC-3
Формат/Информация                        : Audio Coding 3
Расширение режима                        : CM (complete main)
Параметр Endianness формата              : Big
Идентификатор кодека                     : A_AC3
Продолжительность                        : 1 ч. 40 м.
Вид битрейта                             : Постоянный
Битрейт                                  : 448 Кбит/сек
Каналы                                   : 6 каналов
Расположение каналов                     : Front: L C R, Side: L R, LFE
Частота                                  : 48,0 КГц
Частота кадров                           : 31,250 кадров/сек (1536 spf)
Битовая глубина                          : 16 бит
Метод сжатия                             : С потерями
Размер потока                            : 321 Мбайт (16%)
Заголовок                                : Original
Язык                                     : English
Default                                  : Нет
Forced                                   : Нет

Текст #1
Идентификатор                            : 4
Формат                                   : UTF-8
Идентификатор кодека                     : S_TEXT/UTF8
Идентификатор кодека/Информация          : UTF-8 Plain Text
Продолжительность                        : 1 ч. 39 м.
Битрейт                                  : 4 бит/сек
Count of elements                        : 61
Размер потока                            : 3,42 Кбайт (0%)
Заголовок                                : Forced
Язык                                     : Russian
Default                                  : Да
Forced                                   : Нет

Текст #2
Идентификатор                            : 5
Формат                                   : UTF-8
Идентификатор кодека                     : S_TEXT/UTF8
Идентификатор кодека/Информация          : UTF-8 Plain Text
Продолжительность                        : 1 ч. 39 м.
Битрейт                                  : 138 бит/сек
Count of elements                        : 2086
Размер потока                            : 100 Кбайт (0%)
Заголовок                                : Full
Язык                                     : Russian
Default                                  : Нет
Forced                                   : Нет

Текст #3
Идентификатор                            : 6
Формат                                   : UTF-8
Идентификатор кодека                     : S_TEXT/UTF8
Идентификатор кодека/Информация          : UTF-8 Plain Text
Продолжительность                        : 1 ч. 39 м.
Битрейт                                  : 92 бит/сек
Count of elements                        : 2095
Размер потока                            : 67,2 Кбайт (0%)
Заголовок                                : Full
Язык                                     : English
Default                                  : Нет
Forced                                   : Нет

Текст #4
Идентификатор                            : 7
Формат                                   : UTF-8
Идентификатор кодека                     : S_TEXT/UTF8
Идентификатор кодека/Информация          : UTF-8 Plain Text
Продолжительность                        : 1 ч. 39 м.
Битрейт                                  : 99 бит/сек
Count of elements                        : 2206
Размер потока                            : 72,1 Кбайт (0%)
Заголовок                                : SDH
Язык                                     : English
Default                                  : Нет
Forced                                   : Нет

Меню
00:00:00.000                             : en:Chapter 1
00:10:35.091                             : en:Chapter 2
00:18:37.115                             : en:Chapter 3
00:32:24.858                             : en:Chapter 4
00:42:40.306                             : en:Chapter 5
00:52:27.351                             : en:Chapter 6
01:02:01.300                             : en:Chapter 7
01:11:50.930                             : en:Chapter 8
01:22:36.743                             : en:Chapter 9
01:32:54.902                             : en:Chapter 10



Скриншоты:
[+] Всего файлов в раздаче - 1:
Game.Night.2018.BDRip(AVC).OlLanDGroup.mkv1.99 GB

Текущая раздача:
ДатаКомментарии    РазмерПиры
2018-05-16 U Ночные игры / Game Night (2018) BDRip-AVC от OlLanDGroup | iTunes 1.99 GB ↑ 40 ↓ 15

Показать еще раздачи по запросу ночные:
2018-05-20 U Ночные игры / Game Night (2018) BDRip-AVC от HELLYWOOD | iTunes 2.14 GB ↑ 60 ↓ 31
2018-05-17 U Ночные игры / Game Night (2018) BDRip от ExKinoRay | iTunes 1.42 GB ↑ 36 ↓ 15
2018-05-14 U Ночные игры / Game Night (2018) BDRip 720p от HELLYWOOD | iTunes 4.19 GB ↑ 58 ↓ 44
2018-05-13 U Ночные игры / Game Night (2018) BDRip 1080p от qqss44 & MegaPeer | iTunes 7.56 GB ↑ 67 ↓ 143
2018-05-13 U Ночные игры / Game Night (2018) BDRip-AVC от HELLYWOOD | iTunes 1.41 GB ↑ 58 ↓ 16
2018-05-13 U Ночные игры / Game Night (2018) BDRip от MegaPeer | iTunes 1.42 GB ↑ 77 ↓ 18
2018-05-12 U Ночные игры / Game Night (2018) HDRip от Scarabey | iTunes 743.98 MB ↑ 41 ↓ 17

Отзывы
Зарегистрируйтесь чтобы добавить комментарий.
Обратная связь
Copyleft ©