↑↓Torrent.by
Поиск
Логин: Регистрация
Пароль: Восстановить пароль
Загрузка...

Кукла / The Boy (2016) BDRip 720p от ExKinoRay | Лицензия

Скачать kukla-the-boy-2016-bdrip-720p-ot-exkinoray-licenziya.torrent
U Магнитная ссылка Размер: 5.84 GB Раздают: 33 Качают: 15 Добавлен: 2018-05-16 15:15:14
Кукла / The Boy (2016) BDRip 720p от ExKinoRay | Лицензия

Название: Кукла
Оригинальное название: The Boy
Год выхода: 2016
Жанр: Ужасы, триллер
Режиссер: Уильям Брент Белл
В ролях: Лорен Коэн, Руперт Эванс, Джеймс Расселл, Джим Нортон (I), Диана Хардкэсл, Бен Робсон, Джетт Клине, Стефани Николь Лемелин

О фильме: Благополучная английская семья нанимает для своего сына американскую няню. Приехав на новое место работы, няня обнаруживает, что ее подопечный — вовсе не настоящий мальчик, а кукла в человеческий рост, с которой обращаются, как с живым человеком. Но тревожные события, происходящие после того, как няня нарушает установленные строгие правила, заставляют её поверить в то, что кукла действительно может быть живой…

Страна: США, Китай, Канада
Студия: Huayi Brothers Media, Lakeshore Entertainment, Robert Simonds Company, The, Vertigo Entertainment
Продолжительность: 01:37:47
Перевод: Дублированный | iTunes

Качество: BDRip 720p
Видео: MPEG-4 AVC, 1280x534, 5761 Kbit/s, 23.976 fps
Звук:
Аудио #01: 48 kHz, DTS, 5.1, 1510 Kbps | Лицензия | RUS |
Аудио #02: 48 kHz, AC3, 5.1, 640 Kbps | Лицензия | RUS |
Аудио #03: 48 kHz, AC3, 5.1, 640 Kbps | Оригинал |  ENG |
Субтитры: Русские (full), английские

Релиз: Автор релиза:


[+] MI
General
Unique ID                   : 330238486918997900244294768902798647257 (0xF8719E7BAD01B33B5E95961D08F51FD9)
Complete name               : C:Video111The.Boy.2016.BDRip.720p.ExKinoRay.mkv
Format                      : Matroska
Format version              : Version 4 / Version 2
File size                   : 5.84 GiB
Duration                    : 1 h 37 min
Overall bit rate            : 8 547 kb/s
Movie name                  : The boy 2016 from ExKinoRay
Encoded date                : UTC 2018-05-15 19:29:40
Writing application         : mkvmerge v22.0.0 ('At The End Of The World') 64-bit
Writing library             : libebml v1.3.5 + libmatroska v1.4.8

Video
ID                          : 1
Format                      : AVC
Format/Info                 : Advanced Video Codec
Format profile              : High@L4.1
Format settings             : CABAC / 12 Ref Frames
Format settings, CABAC      : Yes
Format settings, ReFrames   : 12 frames
Codec ID                    : V_MPEG4/ISO/AVC
Duration                    : 1 h 37 min
Bit rate                    : 5 761 kb/s
Width                       : 1 280 pixels
Height                      : 534 pixels
Display aspect ratio        : 2.40:1
Frame rate mode             : Constant
Frame rate                  : 23.976 (24000/1001) FPS
Color space                 : YUV
Chroma subsampling          : 4:2:0
Bit depth                   : 8 bits
Scan type                   : Progressive
Bits/(Pixel*Frame)          : 0.352
Stream size                 : 3.93 GiB (67%)
Writing library             : x264 core 129 r2245 bc13772
Encoding settings           : cabac=1 / ref=12 / deblock=1:-3:-3 / analyse=0x3:0x133 / me=umh / subme=11 / psy=1 / psy_rd=1.05:0.10 / mixed_ref=1 / me_range=32 / chroma_me=1 / trellis=2 / 8x8dct=1 / cqm=0 / deadzone=21,11 / fast_pskip=0 / chroma_qp_offset=-3 / threads=6 / lookahead_threads=1 / sliced_threads=0 / nr=0 / decimate=1 / interlaced=0 / bluray_compat=0 / constrained_intra=0 / bframes=8 / b_pyramid=2 / b_adapt=2 / b_bias=0 / direct=3 / weightb=1 / open_gop=0 / weightp=2 / keyint=250 / keyint_min=23 / scenecut=40 / intra_refresh=0 / rc_lookahead=60 / rc=2pass / mbtree=1 / bitrate=5761 / ratetol=1.0 / qcomp=0.60 / qpmin=0 / qpmax=69 / qpstep=4 / cplxblur=20.0 / qblur=0.5 / ip_ratio=1.40 / aq=1:0.80
Language                    : English
Default                     : Yes
Forced                      : No

Audio #1
ID                          : 2
Format                      : DTS
Format/Info                 : Digital Theater Systems
Codec ID                    : A_DTS
Duration                    : 1 h 37 min
Bit rate mode               : Constant
Bit rate                    : 1 509 kb/s
Channel(s)                  : 6 channels
Channel positions           : Front: L C R, Side: L R, LFE
Sampling rate               : 48.0 kHz
Frame rate                  : 93.750 FPS (512 SPF)
Bit depth                   : 24 bits
Compression mode            : Lossy
Stream size                 : 1.03 GiB (18%)
Title                       : Dub [License]
Language                    : Russian
Default                     : Yes
Forced                      : Yes

Audio #2
ID                          : 3
Format                      : AC-3
Format/Info                 : Audio Coding 3
Codec ID                    : A_AC3
Duration                    : 1 h 37 min
Bit rate mode               : Constant
Bit rate                    : 640 kb/s
Channel(s)                  : 6 channels
Channel positions           : Front: L C R, Side: L R, LFE
Sampling rate               : 48.0 kHz
Frame rate                  : 31.250 FPS (1536 SPF)
Bit depth                   : 16 bits
Compression mode            : Lossy
Stream size                 : 447 MiB (7%)
Title                       : Dub [License]
Language                    : Russian
Service kind                : Complete Main
Default                     : No
Forced                      : No

Audio #3
ID                          : 4
Format                      : AC-3
Format/Info                 : Audio Coding 3
Codec ID                    : A_AC3
Duration                    : 1 h 37 min
Bit rate mode               : Constant
Bit rate                    : 640 kb/s
Channel(s)                  : 6 channels
Channel positions           : Front: L C R, Side: L R, LFE
Sampling rate               : 48.0 kHz
Frame rate                  : 31.250 FPS (1536 SPF)
Bit depth                   : 16 bits
Compression mode            : Lossy
Stream size                 : 448 MiB (7%)
Title                       : Original
Language                    : English
Service kind                : Complete Main
Default                     : No
Forced                      : No

Text #1
ID                          : 5
Format                      : UTF-8
Codec ID                    : S_TEXT/UTF8
Codec ID/Info               : UTF-8 Plain Text
Duration                    : 1 h 29 min
Bit rate                    : 64 b/s
Count of elements           : 801
Stream size                 : 42.6 KiB (0%)
Title                       : Full
Language                    : Russian
Default                     : No
Forced                      : No

Text #2
ID                          : 6
Format                      : UTF-8
Codec ID                    : S_TEXT/UTF8
Codec ID/Info               : UTF-8 Plain Text
Duration                    : 1 h 27 min
Bit rate                    : 42 b/s
Count of elements           : 1023
Stream size                 : 27.2 KiB (0%)
Title                       : Full
Language                    : English
Default                     : No
Forced                      : No

Text #3
ID                          : 7
Format                      : UTF-8
Codec ID                    : S_TEXT/UTF8
Codec ID/Info               : UTF-8 Plain Text
Duration                    : 1 h 27 min
Bit rate                    : 46 b/s
Count of elements           : 1094
Stream size                 : 29.6 KiB (0%)
Title                       : SDH
Language                    : English
Default                     : No
Forced                      : No

Text #4
ID                          : 8
Format                      : UTF-8
Codec ID                    : S_TEXT/UTF8
Codec ID/Info               : UTF-8 Plain Text
Duration                    : 1 h 29 min
Bit rate                    : 56 b/s
Count of elements           : 1176
Stream size                 : 37.4 KiB (0%)
Title                       : SDH Colored
Language                    : English
Default                     : No
Forced                      : No

Menu
00:00:00.000                : en:00:00:00.000
00:09:51.925                : en:00:09:51.925
00:19:23.204                : en:00:19:23.204
00:30:49.264                : en:00:30:49.264
00:44:00.304                : en:00:44:00.304
00:52:51.168                : en:00:52:51.168
01:04:22.609                : en:01:04:22.609
01:11:52.767                : en:01:11:52.767
01:21:46.151                : en:01:21:46.151
01:27:00.340                : en:01:27:00.340



Скриншоты:
[+] Всего файлов в раздаче - 1:
The.Boy.2016.BDRip.720p.ExKinoRay.mkv5.84 GB

Текущая раздача:
ДатаКомментарии    РазмерПиры
2018-05-16 U Кукла / The Boy (2016) BDRip 720p от ExKinoRay | Лицензия 5.84 GB ↑ 33 ↓ 15

Показать еще раздачи по запросу кукла:
2018-05-15 U Кукла / The Boy (2016) BDRip от MegaPeer | Лицензия 747.41 MB ↑ 31 ↓ 5
2018-05-14 U Кукла / The Boy (2016) BDRip от MegaPeer | Лицензия 1.46 GB ↑ 87 ↓ 37
2018-01-06 U Девушка для сатаны / Кукла Сатаны / La Bimba di Satana (1982) DVDRip | A 1.46 GB ↑ 78 ↓ 56
2017-04-16 U Кукла / The Boy (2016) BDRip 720p от KinoGadget | iPad | iTunes 1.90 GB ↑ 89 ↓ 16
2016-04-30 U Кукла / The Boy (2016) HDRip от Scarabey | iTunes 1.46 GB ↑ 208 ↓ 22
2016-04-27 U Кукла / The Boy (2016) BDRip 1080p | D | iTunes 7.91 GB ↑ 128 ↓ 96
2016-04-27 U Кукла / The Boy (2016) BDRip 720p | D | iTunes 4.63 GB ↑ 106 ↓ 56

Отзывы
Зарегистрируйтесь чтобы добавить комментарий.
Обратная связь
Copyleft ©