↑↓Torrent.by
Поиск
Логин: Регистрация
Пароль: Восстановить пароль
Загрузка...

Стрельба по мишеням / Downrange (2017) WEBRip-AVC | L1

Скачать strelba-po-mishenyam-downrange-2017-webrip-avc-l1.torrent
U Магнитная ссылка Размер: 1.17 GB Раздают: 196 Качают: 23 Добавлен: 2018-05-17 05:01:46
Стрельба по мишеням / Downrange  (2017) WEBRip-AVC | L1

Название: Стрельба по мишеням
Оригинальное название: Downrange
Год выхода: 2017
Жанр: Триллер
Режиссер: Рюхэй Китамура
В ролях: Келли Коннери, Стефани Пирсон, Род Эрнандес, Энтони Кирлеу, Алекса Йэмс, Джейсон Тобиаш, Эрик Матучек, Икуми Ёсимацу, Хана Бурсон

О фильме:
Группа молодых людей путешествует на автомобиле, когда у них вдруг пробивает колесо. Они делают остановку для замены и попадают под обстрел сумасшедшего снайпера.

Страна: США
Продолжительность: 01:29:00
Перевод: Любительский (одноголосый) Хихикающий доктор

Файл
Формат: MKV
Качество: WEBRip-AVC
Видео: 720x304 (2.35:1), 29.970 fps, XviD MPEG-4 ~1700 kbps avg, 0.28 bit/pixel
Звук: 44.100 kHz, MPEG Layer 3, 2 ch, ~192.00 kbps avg rus

Трейлер

Небольшая реклама в титрах


[+] MI

Complete name                            : C:Downrange 2018.Xixidok.mkv
Format                                   : Matroska
Format version                           : Version 4 / Version 2
File size                                : 1.17 GiB
Duration                                 : 1 h 29 min
Overall bit rate                         : 1 872 kb/s
Encoded date                             : UTC 2018-05-16 09:42:18 / UTC 2018-05-04T00:12:00Z
Writing application                      : mkvmerge v8.3.0 ('Over the Horizon') 64bit
Writing library                          : libebml v1.3.1 + libmatroska v1.4.2 / Lavf55.12.0

Video
ID                                       : 1
Format                                   : AVC
Format/Info                              : Advanced Video Codec
Format profile                           : High@L4.1
Format settings                          : CABAC / 4 Ref Frames
Format settings, CABAC                   : Yes
Format settings, RefFrames               : 4 frames
Codec ID                                 : V_MPEG4/ISO/AVC
Duration                                 : 1 h 29 min
Bit rate                                 : 1 700 kb/s
Width                                    : 720 pixels
Height                                   : 304 pixels
Display aspect ratio                     : 2.35:1
Frame rate mode                          : Constant
Frame rate                               : 29.970 (30000/1001) FPS
Color space                              : YUV
Chroma subsampling                       : 4:2:0
Bit depth                                : 8 bits
Scan type                                : Progressive
Bits/(Pixel*Frame)                       : 0.259
Stream size                              : 1.03 GiB (88%)
Writing library                          : x264 core 142 r2479 dd79a61
Encoding settings                        : cabac=1 / ref=1 / deblock=1:0:0 / analyse=0x3:0x113 / me=hex / subme=2 / psy=1 / psy_rd=1.00:0.00 / mixed_ref=0 / me_range=16 / chroma_me=1 / trellis=0 / 8x8dct=1 / cqm=0 / deadzone=21,11 / fast_pskip=1 / chroma_qp_offset=0 / threads=12 / lookahead_threads=2 / sliced_threads=0 / nr=0 / decimate=1 / interlaced=0 / bluray_compat=0 / constrained_intra=0 / bframes=3 / b_pyramid=2 / b_adapt=1 / b_bias=0 / direct=1 / weightb=1 / open_gop=0 / weightp=1 / keyint=300 / keyint_min=30 / scenecut=40 / intra_refresh=0 / rc_lookahead=10 / rc=abr / mbtree=1 / bitrate=1700 / ratetol=1.0 / qcomp=0.60 / qpmin=0 / qpmax=69 / qpstep=4 / vbv_maxrate=62500 / vbv_bufsize=78125 / nal_hrd=none / filler=0 / ip_ratio=1.40 / aq=1:1.00
Default                                  : Yes
Forced                                   : No
Color range                              : Limited
Color primaries                          : BT.709
Transfer characteristics                 : BT.709
Matrix coefficients                      : BT.709
Statistics Tags Issue                    : mkvmerge v8.3.0 ('Over the Horizon') 64bit 2018-05-16 09:42:18 / mkvmerge v8.3.0 ('Over the Horizon') 64bit 2018-05-16 09:42:18 / UTC 2018-05-04T00:12:00Z
FromStats_BitRate                        : 1681427
FromStats_Duration                       : 01:29:36.070000000
FromStats_FrameCount                     : 161121
FromStats_StreamSize                     : 1129933832

Audio
ID                                       : 2
Format                                   : MPEG Audio
Format version                           : Version 1
Format profile                           : Layer 3
Codec ID                                 : A_MPEG/L3
Codec ID/Hint                            : MP3
Duration                                 : 1 h 29 min
Bit rate mode                            : Constant
Bit rate                                 : 192 kb/s
Channel(s)                               : 2 channels
Sampling rate                            : 44.1 kHz
Compression mode                         : Lossy
Delay relative to video                  : -67 ms
Stream size                              : 123 MiB (10%)
Default                                  : Yes
Forced                                   : No
Statistics Tags Issue                    : mkvmerge v8.3.0 ('Over the Horizon') 64bit 2018-05-16 09:42:18 / mkvmerge v8.3.0 ('Over the Horizon') 64bit 2018-05-16 09:42:18 / UTC 2018-05-04T00:12:00Z
FromStats_BitRate                        : 192000
FromStats_Duration                       : 01:29:48.486000000
FromStats_FrameCount                     : 206278
FromStats_StreamSize                     : 129323677




Скриншоты:
[+] Всего файлов в раздаче - 1:
Downrange 2018.Xixidok.mkv1.17 GB

Текущая раздача:
ДатаКомментарии    РазмерПиры
2018-05-17 U Стрельба по мишеням / Downrange (2017) WEBRip-AVC | L1 1.17 GB ↑ 196 ↓ 23

Похожие раздачи по запросу - стрельба:
2018-05-17 U Стрельба по мишеням / Downrange (2017) WEB-DLRip-AVC | L1 1.45 GB ↑ 184 ↓ 43
2018-05-17 U Стрельба по мишеням / Downrange (2017) WEB-DL 1080p | L1 4.61 GB ↑ 122 ↓ 25
2015-03-01 U Юрьев А.А. - Пулевая спортивная стрельба [1976, PDF, RUS] 2К15.52 MB ↑ 2948 ↓ 2

Отзывы
Зарегистрируйтесь чтобы добавить комментарий.
Обратная связь
Copyleft ©