↑↓Torrent.by
Поиск
Логин: Регистрация
Пароль: Восстановить пароль
Загрузка...

Движение вверх (2017) WEB-DL 1080p | iTunes

Скачать dvizhenie-vverh-2017-web-dl-1080p-itunes.torrent
U Магнитная ссылка Размер: 4.80 GB Раздают: 51 Качают: 67 Добавлен: 2018-05-17 05:02:26
Движение вверх (2017) WEB-DL 1080p | iTunes

Название: Движение вверх
Год выпуска: 2017
Жанр:  Спорт, драма
Режиссёр: Антон Мегердичев
В ролях: Владимир Машков, Андрей Смоляков, Иван Колесников, Кирилл Зайцев, Джон Сэвэдж, Марат Башаров, Александра Ревенко, Виктория Толстоганова, Сергей Гармаш, Джеймс Тратас

Описание:
Есть победы, которые меняют ход истории. Победы духа, победы страны, победы всего мира. Таким триумфом стали легендарные «три секунды» — выигрыш сборной СССР по баскетболу на роковой мюнхенской Олимпиаде 1972 г. Впервые за 36 лет была повержена «непобедимая» команда США. Никто даже помыслить не мог о том, что это возможно — обыграть великолепных непогрешимых американцев на Олимпийских играх! Никто, кроме советских баскетболистов (русских и грузин, украинцев и казахов, белорусов и литовцев).
Когда проигрыш означал поражение страны, когда нужно было выходить и бороться в раскаленной обстановке из-за произошедшего теракта, великий тренер сборной СССР был готов на все, лишь бы помочь своим подопечным разбить американский миф о непотопляемой команде мечты. Ведь он знал, что создал самую сильную сборную на планете, и в начале заставил поверить в это своих игроков, а затем весь мир.

Страна: Россия
Студия: Студия Тритэ
Продолжительность: 02:13:50
Язык: Русский

Файл
Формат: MKV
Качество: WEB-DL 1080p
Видео: 1920x808 (2.40:1), 25 fps, MPEG-4 AVC ~ 4957 kbps avg, 0.128 bit/pixel
Звук: AC3, 48 kHz, 6 ch, ~384.00 kbps avg | русский | iTunes

Субтитры: Русские, на иностранную речь (хардсаб)
Семпл


[+] Инфо-файл
Общее
Уникальный идентификатор                 : 242241847549342692614117702835283325632 (0xB63E15323E326F33988D1B82867672C0)
Полное имя                               : DVIZHENIE_VVERH_WEB_DL_1080p.mkv
Формат                                   : Matroska
Версия формата                           : Version 2
Размер файла                             : 4,80 Гбайт
Продолжительность                        : 2 ч. 8 м.
Общий поток                              : 5343 Кбит/сек
Дата кодирования                         : UTC 2018-05-16 18:19:02
Программа кодирования                    : mkvmerge v8.3.0 ('Over the Horizon') 64bit
Библиотека кодирования                   : libebml v1.3.1 + libmatroska v1.4.2

Видео
Идентификатор                            : 1
Формат                                   : AVC
Формат/Информация                        : Advanced Video Codec
Профиль формата                          : High@L4
Настройки формата                        : CABAC / 5 Ref Frames
Параметр CABAC формата                   : Да
Параметр ReFrames формата                : 5 кадров
Идентификатор кодека                     : V_MPEG4/ISO/AVC
Продолжительность                        : 2 ч. 8 м.
Битрейт                                  : 4957 Кбит/сек
Ширина                                   : 1920 пикселей
Высота                                   : 808 пикселей
Соотношение сторон                       : 2,40:1
Режим частоты кадров                     : Постоянный
Частота кадров                           : 25,000 кадров/сек
Цветовое пространство                    : YUV
Субдискретизация насыщенности            : 4:2:0
Битовая глубина                          : 8 бит
Тип развёртки                            : Прогрессивная
Бит/(Пиксели*Кадры)                      : 0.128
Размер потока                            : 4,45 Гбайт (93%)
Язык                                     : English
Default                                  : Да
Forced                                   : Нет
Цветовой диапазон                        : Limited
Основные цвета                           : BT.709
Характеристики трансфера                 : BT.709
Коэффициенты матрицы                     : BT.709

Аудио
Идентификатор                            : 2
Формат                                   : AC-3
Формат/Информация                        : Audio Coding 3
Идентификатор кодека                     : A_AC3
Продолжительность                        : 2 ч. 8 м.
Вид битрейта                             : Постоянный
Битрейт                                  : 384 Кбит/сек
Каналы                                   : 6 каналов
Расположение каналов                     : Front: L C R, Side: L R, LFE
Частота                                  : 48,0 КГц
Частота кадров                           : 31,250 кадров/сек (1536 SPF)
Битовая глубина                          : 16 бит
Метод сжатия                             : С потерями
Размер потока                            : 353 Мбайт (7%)
Язык                                     : Russian
Default                                  : Да
Forced                                   : Нет



Скриншоты:
[+] Всего файлов в раздаче - 1:
DVIZHENIE_VVERH_WEB_DL_1080p.mkv4.80 GB

Текущая раздача:
ДатаКомментарии    РазмерПиры
2018-05-17 U Движение вверх (2017) WEB-DL 1080p | iTunes 1 К 4.80 GB ↑ 51 ↓ 67

Показать еще раздачи по запросу движение:
2018-05-20 U Движение вверх (2017) WEB-DLRip от Scarabey | iTunes 795.68 MB ↑ 58 ↓ 7
2018-05-19 U Движение вверх (2017) WEB-DLRip-AVC от ExKinoRay | iTunes 2.68 GB ↑ 60 ↓ 17
2018-05-18 U Движение вверх (2017) WEB-DLRip от Scarabey | iTunes 2.18 GB ↑ 4232 ↓ 44
2018-05-17 U Движение вверх (2017) WEB-DLRip от MegaPeer | iTunes 2.18 GB ↑ 96 ↓ 28
2018-05-17 U Движение вверх (2017) WEB-DLRip от Scarabey | iTunes 1.45 GB ↑ 576 ↓ 16
2018-05-17 U Движение вверх (2017) WEB-DLRip от MegaPeer | iTunes 1.46 GB ↑ 251 ↓ 80
2018-01-29 U Движение вверх (2017) WEBRip от ExKinoRay 806.04 MB ↑ 295 ↓ 79

Отзывы
vasiliji_mazur@mail.ru
Пожалуй самый переоценённый фильм последнего времени. Рейтинг на КиноПоиске даже больше, чем у Легенды #17, причём сама "Легенда", на мой взгляд, на голову выше данного творения.

Зарегистрируйтесь чтобы добавить комментарий.
Обратная связь
Copyleft ©