↑↓Torrent.by
Поиск
Логин: Регистрация
Пароль: Восстановить пароль
Загрузка...

Уральские Пельмени - Джентльмены без сдачи (2018) WEBRip 1080p

Скачать uralskie-pelmeni-dzhentlmeny-bez-sdachi-2018-webrip-1080p.torrent
U Магнитная ссылка Размер: 2.17 GB Раздают: 557 Качают: 380 Добавлен: 2018-05-19 09:23:03
Уральские Пельмени - Джентльмены без сдачи (2018) WEBRip 1080p

Название: Уральские Пельмени - Джентльмены без сдачи
Год выхода: 2018
Жанр: ТВ-шоу, юмор, сатира, развлекательный
Режиссер: Анастастия Ширина, Леонид Коновалов
В ролях: Дмитрий Брекоткин, Сергей Ершов, Сергей Исаев, Сергей Калугин, Вячеслав Мясников, Александр Попов, Андрей Рожков, Дмитрий Соколов (V), Максим Ярица, Юлия Михалкова, Стефания-Марьяна Гурская, Илана Юрьева, Ксения Корнева

О фильме:
Они уже называют военкома сынок
Они до сих пор хранят свой белый билет
Они устают только лишь от мысли про марш-бросок
Они знают никому не нужные военные тайны
Они ходят не в ногу даже по одному
Они объявляют призыв в новое шоу «Джентльмены без сдачи»

Страна: Россия
Продолжительность: 01:12:21

Файл
Кодек: MPEG-4 AVC
Качество: WEBRip 1080p
Видео: 1920x1080, 4182 Кбит/с, 25 fps
Звук: AAC, 2 ch, 96 kb/s

Релиз от: music80
[+] MediaInfo:
General
Complete name                  : F:_NetworkVideoУральские Пельмени - Джентльмены без сдачи (2018).mp4
Format                         : MPEG-4
Format profile                 : Base Media
Codec ID                       : isom (isom/iso2/avc1/mp41)
File size                      : 2.17 GiB
Duration                       : 1 h 12 min
Overall bit rate               : 4 284 kb/s
Writing application            : Lavf56.40.101

Video
ID                             : 1
Format                         : AVC
Format/Info                    : Advanced Video Codec
Format profile                 : High@L4
Format settings                : CABAC / 2 Ref Frames
Format settings, CABAC         : Yes
Format settings, ReFrames      : 2 frames
Codec ID                       : avc1
Codec ID/Info                  : Advanced Video Coding
Duration                       : 1 h 12 min
Duration_FirstFrame            : -40 ms
Bit rate                       : 4 182 kb/s
Width                          : 1 920 pixels
Height                         : 1 080 pixels
Display aspect ratio           : 16:9
Frame rate mode                : Variable
Frame rate                     : 25.000 FPS
Minimum frame rate             : 25.000 FPS
Maximum frame rate             : 25.098 FPS
Color space                    : YUV
Chroma subsampling             : 4:2:0
Bit depth                      : 8 bits
Scan type                      : Progressive
Bits/(Pixel*Frame)             : 0.081
Stream size                    : 2.11 GiB (98%)
Color range                    : Limited
Color primaries                : BT.709
Transfer characteristics       : BT.709
Matrix coefficients            : BT.709

Audio
ID                             : 2
Format                         : AAC
Format/Info                    : Advanced Audio Codec
Format profile                 : LC
Codec ID                       : mp4a-40-2
Duration                       : 1 h 12 min
Bit rate mode                  : Constant
Bit rate                       : 96.0 kb/s
Channel(s)                     : 2 channels
Channel(s)_Original            : 1 channel
Channel positions              : Front: C
Sampling rate                  : 44.1 kHz
Frame rate                     : 43.066 FPS (1024 SPF)
Compression mode               : Lossy
Stream size                    : 49.7 MiB (2%)
Default                        : Yes
Alternate group                : 1



Скриншоты:
[+] Всего файлов в раздаче - 1:
Уральские Пельмени - Джентльмены без сдачи (2018).mp42.17 GB

Текущая раздача:
ДатаКомментарии    РазмерПиры
2018-05-19 U Уральские Пельмени - Джентльмены без сдачи (2018) WEBRip 1080p 2.17 GB ↑ 557 ↓ 380

Показать еще раздачи по запросу уральские:
2018-06-16 U Уральские пельмени - Азбука Уральских Пельменей - В (2018) WEBRip 720p 1.06 GB ↑ 81 ↓ 44
2018-06-16 U Уральские пельмени - Азбука Уральских Пельменей - В (2018) WEBRip 1080p 2.13 GB ↑ 138 ↓ 91
2018-06-09 U Уральские пельмени - Азбука Уральских Пельменей - Б (2018) WEBRip 1080p 2.07 GB ↑ 189 ↓ 169
2018-06-04 U Уральские пельмени - Азбука Уральских Пельменей - А (2018) WEBRip 1080p 1.20 GB ↑ 125 ↓ 123
2018-05-31 U Уральские пельмени - Унесенные феном (2018) WEBRip 1080p 1.15 GB ↑ 113 ↓ 94
2018-05-20 U Уральские Пельмени - Джентльмены без сдачи [эфир от 18.05] (2018) WEBRip 720p 1.09 GB ↑ 212 ↓ 93
2018-05-13 U Уральские Пельмени - Гиря от ума [эфир от 11.05] (2018) WEBRip 720p 1.14 GB ↑ 256 ↓ 57

Отзывы
Зарегистрируйтесь чтобы добавить комментарий.
Обратная связь
Copyleft ©