↑↓Torrent.by
Поиск
Логин: Регистрация
Пароль: Восстановить пароль
Загрузка...

Шофёр на один рейс (1981) HDTVRip-AVC от KORSAR

Скачать shofer-na-odin-reys-1981-hdtvrip-avc-ot-korsar.torrent
U Магнитная ссылка Размер: 3.87 GB Раздают: 70 Качают: 17 Добавлен: 2018-05-19 09:34:44
Шофёр на один рейс (1981) HDTVRip-AVC от KORSAR

Название: Шофёр на один рейс
Год выпуска: 1981
Жанр:  Комедия
Режиссёр: Вадим Зобин
В ролях: Лидия Федосеева-Шукшина, Олег Ефремов, Лидия Сухаревская, Наталья Вавилова, Юрий Дуванов, Вадим Андреев, Любовь Соколова, Валентина Якунина, Наталья Кустинская, Владимир Прохоров, Георге Георгиу, Виктор Бурлаков, Александр Назаров, Владимир Сошальский, Валентина Каратаева

О фильме: Колхозница Софья, которая наконец-то накопила на автомобиль, приезжает в Москву, где знакомится с человеком, который помогает ей в покупке и соглашается доставить авто до места жительства. Все это время героев поджидают жизненно-комические ситуации, которые делают фильм легким и смешным.

Выпущено: СССР
Продолжительность: 2 х ~ 01:07:00
Перевод: Не требуется

Файл
Качество: HDTVRip-AVC
Видео: MPEG-4 AVC, 1008x648, 1010x648, 3942 Кбит/с, 25.000 Кадр/с
Аудио: AC3, 2 ch, 192 Кбит/с

Релиз:


[+] MediaInfo
Общее
Уникальный идентификатор                 : 208743050384550327357343247047543683044 (0x9D0A72FAF58FDBE2B442C65135DEF7E4)
Полное имя                               : Шофер на один рейс_1981_HDTVRip-AVC_KORSAR.Шофёр-1.mkv
Формат                                   : Matroska
Версия формата                           : Version 2
Размер файла                             : 1,98 Гбайт
Продолжительность                        : 1 ч. 7 м.
Общий поток                              : 4217 Кбит/сек
Название фильма                          : Шофер на один рейс_1981_HDTVRip-AVC_KORSAR
Дата кодирования                         : UTC 2018-05-17 21:49:43
Программа кодирования                    : mkvmerge v5.8.0 ('No Sleep / Pillow') built on Sep  2 2012 15:37:04
Библиотека кодирования                   : libebml v1.2.3 + libmatroska v1.3.0

Видео
Идентификатор                            : 1
Формат                                   : AVC
Формат/Информация                        : Advanced Video Codec
Профиль формата                          : High@L4.1
Параметр CABAC формата                   : Да
Параметр RefFrames формата               : 12 кадров
Идентификатор кодека                     : V_MPEG4/ISO/AVC
Продолжительность                        : 1 ч. 7 м.
Битрейт                                  : 3942 Кбит/сек
Ширина                                   : 1008 пикселей
Высота                                   : 648 пикселей
Соотношение сторон                       : 16:10
Режим частоты кадров                     : Постоянный
Частота кадров                           : 25,000 кадров/сек
Цветовое пространство                    : YUV
Субдискретизация насыщенности            : 4:2:0
Битовая глубина                          : 8 бит
Тип развёртки                            : Прогрессивная
Бит/(Пиксели*Кадры)                      : 0.241
Размер потока                            : 1,85 Гбайт (93%)
Библиотека кодирования                   : x264 core 152 r2851kMod ba24899
Настройки программы                      : cabac=1 / ref=12 / deblock=1:-2:-1 / analyse=0x3:0x113 / me=umh / subme=10 / psy=1 / fade_compensate=0.00 / psy_rd=1.05:0.10 / mixed_ref=1 / me_range=32 / chroma_me=1 / trellis=2 / 8x8dct=1 / cqm=0 / deadzone=21,11 / fast_pskip=1 / chroma_qp_offset=-3 / threads=12 / lookahead_threads=2 / sliced_threads=0 / nr=0 / decimate=1 / interlaced=0 / bluray_compat=0 / constrained_intra=0 / bframes=8 / b_pyramid=2 / b_adapt=2 / b_bias=0 / direct=1 / weightb=1 / open_gop=0 / weightp=2 / keyint=250 / keyint_min=25 / scenecut=40 / intra_refresh=0 / rc=crf / mbtree=0 / crf=17.8000 / qcomp=0.63 / qpmin=0 / qpmax=39 / qpstep=4 / ip_ratio=1.40 / pb_ratio=1.30 / aq=1:0.70
Язык                                     : English
Default                                  : Да
Forced                                   : Нет
Цветовой диапазон                        : Limited
Основные цвета                           : BT.709
Характеристики трансфера                 : BT.709
Коэффициенты матрицы                     : BT.709

Аудио
Идентификатор                            : 2
Формат                                   : AC-3
Формат/Информация                        : Audio Coding 3
Параметр Endianness формата              : Big
Идентификатор кодека                     : A_AC3
Продолжительность                        : 1 ч. 7 м.
Вид битрейта                             : Постоянный
Битрейт                                  : 192 Кбит/сек
Каналы                                   : 2 канала
Расположение каналов                     : Front: L R
Частота                                  : 48,0 КГц
Частота кадров                           : 31,250 кадров/сек (1536 SPF)
Битовая глубина                          : 16 бит
Метод сжатия                             : С потерями
Размер потока                            : 92,2 Мбайт (5%)
Язык                                     : Russian
Default                                  : Да
Forced                                   : Нет

===========================================================================

Общее
Уникальный идентификатор                 : 239771861503830643093843768212399938609 (0xB462617B662658C5A442BFFD0E115C31)
Полное имя                               : Шофер на один рейс_1981_HDTVRip-AVC_KORSAR.Шофёр-2.mkv
Формат                                   : Matroska
Версия формата                           : Version 2
Размер файла                             : 1,89 Гбайт
Продолжительность                        : 1 ч. 8 м.
Общий поток                              : 3939 Кбит/сек
Название фильма                          : Шофер на один рейс_1981_HDTVRip-AVC_KORSAR
Дата кодирования                         : UTC 2018-05-17 21:53:12
Программа кодирования                    : mkvmerge v5.8.0 ('No Sleep / Pillow') built on Sep  2 2012 15:37:04
Библиотека кодирования                   : libebml v1.2.3 + libmatroska v1.3.0

Видео
Идентификатор                            : 1
Формат                                   : AVC
Формат/Информация                        : Advanced Video Codec
Профиль формата                          : High@L4.1
Параметр CABAC формата                   : Да
Параметр RefFrames формата               : 12 кадров
Идентификатор кодека                     : V_MPEG4/ISO/AVC
Продолжительность                        : 1 ч. 8 м.
Битрейт                                  : 3668 Кбит/сек
Ширина                                   : 1010 пикселей
Высота                                   : 648 пикселей
Соотношение сторон                       : 16:10
Режим частоты кадров                     : Постоянный
Частота кадров                           : 25,000 кадров/сек
Цветовое пространство                    : YUV
Субдискретизация насыщенности            : 4:2:0
Битовая глубина                          : 8 бит
Тип развёртки                            : Прогрессивная
Бит/(Пиксели*Кадры)                      : 0.224
Размер потока                            : 1,76 Гбайт (93%)
Библиотека кодирования                   : x264 core 152 r2851kMod ba24899
Настройки программы                      : cabac=1 / ref=12 / deblock=1:-2:-1 / analyse=0x3:0x113 / me=umh / subme=10 / psy=1 / fade_compensate=0.00 / psy_rd=1.05:0.10 / mixed_ref=1 / me_range=32 / chroma_me=1 / trellis=2 / 8x8dct=1 / cqm=0 / deadzone=21,11 / fast_pskip=1 / chroma_qp_offset=-3 / threads=12 / lookahead_threads=2 / sliced_threads=0 / nr=0 / decimate=1 / interlaced=0 / bluray_compat=0 / constrained_intra=0 / bframes=8 / b_pyramid=2 / b_adapt=2 / b_bias=0 / direct=1 / weightb=1 / open_gop=0 / weightp=2 / keyint=250 / keyint_min=25 / scenecut=40 / intra_refresh=0 / rc=crf / mbtree=0 / crf=17.8000 / qcomp=0.63 / qpmin=0 / qpmax=39 / qpstep=4 / ip_ratio=1.40 / pb_ratio=1.30 / aq=1:0.70
Язык                                     : English
Default                                  : Да
Forced                                   : Нет
Цветовой диапазон                        : Limited
Основные цвета                           : BT.709
Характеристики трансфера                 : BT.709
Коэффициенты матрицы                     : BT.709

Аудио
Идентификатор                            : 2
Формат                                   : AC-3
Формат/Информация                        : Audio Coding 3
Параметр Endianness формата              : Big
Идентификатор кодека                     : A_AC3
Продолжительность                        : 1 ч. 8 м.
Вид битрейта                             : Постоянный
Битрейт                                  : 192 Кбит/сек
Каналы                                   : 2 канала
Расположение каналов                     : Front: L R
Частота                                  : 48,0 КГц
Частота кадров                           : 31,250 кадров/сек (1536 SPF)
Битовая глубина                          : 16 бит
Метод сжатия                             : С потерями
Размер потока                            : 94,3 Мбайт (5%)
Язык                                     : Russian
Default                                  : Да
Forced                                   : Нет



Скриншоты:
[+] Всего файлов в раздаче - 2:
Шофёр-1.mkv1.98 GB
Шофёр-2.mkv1.89 GB

Текущая раздача:
ДатаКомментарии    РазмерПиры
2018-05-19 U Шофёр на один рейс (1981) HDTVRip-AVC от KORSAR 3.87 GB ↑ 70 ↓ 17

Показать еще раздачи по запросу один:
Вчера U Земля: Один потрясающий день / Earth: One Amazing Day (2017) BDRip | D 1.71 GB ↑ 32 ↓ 17
2018-05-12 U Один в поле воин [01-04 из 04] (2018) HDTV 1080p от Generalfilm 9.17 GB ↑ 88 ↓ 49
2018-05-10 U Один в поле воин [01-04 из 04] (2018) WEBRip-AVC от Files-x 2.37 GB ↑ 276 ↓ 113
2018-05-10 U Один в поле воин [01-04 из 04] (2018) WEBRip 1080р от Files-x 8.20 GB ↑ 70 ↓ 69
2018-05-10 U Один в поле воин [01-04 из 04] (2018) WEB-DLRip от Files-x 2.63 GB ↑ 81 ↓ 92
2018-05-10 U Один в поле воин [01-04 из 04] (2018) WEB-DLRip от GeneralFilm 2.18 GB ↑ 74 ↓ 120
2018-05-09 U Один в поле воин [01-04 из 04] (2018) SATRip-AVC 2.30 GB ↑ 26 ↓ 8

Отзывы
Зарегистрируйтесь чтобы добавить комментарий.
Обратная связь
Copyleft ©