↑↓Torrent.by
Поиск
Логин: Регистрация
Пароль: Восстановить пароль
Загрузка...

Добро пожаловать, или Посторонним вход воспрещен (1964) BDRemux 1080p | Реставрация

Скачать dobro-pozhalovat-ili-postoronnim-vhod-vospreschen-1964-bdremux-1080p-restavraciya.torrent
U Магнитная ссылка Размер: 14.62 GB Раздают: 43 Качают: 28 Добавлен: 2018-05-20 07:13:45
Добро пожаловать, или Посторонним вход воспрещен (1964) BDRemux 1080p | Реставрация

Название: Добро пожаловать, или Посторонним вход воспрещен
Год выхода: 1964
Жанр:  комедия, семейный
Режиссер: Элем Климов
В ролях: Виктор Косых, Евгений Евстигнеев, Арина Алейникова, Илья Рутберг, Лидия Смирнова, Алексей Смирнов, Нина Шацкая, Лидия Волкова, Татьяна Барышева, Александр Байков

О фильме:
Пионер Костя Иночкин, будучи в пионерском лагере, переплыл реку и оказался на запретной для посещений территории, за что и был изгнан его начальником товарищем Дыниным. Не желая доводить бабушку до инфаркта своим досрочным прибытием, мальчик тайно возвращается в лагерь, где пионеры так же тайно содержат его и предпринимают все меры, чтобы не состоялся родительский день. Ведь именно в этот день Костина бабушка заявится в лагерь…

Выпущено: Мосфильм
Продолжительность: 01:13:10
Перевод: Оригинал
Субтитры: Отсутствуют

Файл
Кодек: x264
Качество: BDRemux 1080p
Видео: AVC/H.264, 1920x1080, ~24.9 Mbps, 23.976 fps
Аудио 1: DTS-HD MA 5.1, 3256 Kbps - Русский
Аудио 2: AC3 5.1, 448 Kbps - Русский


[+] MediaInfo...
Полное имя                               : D:Добро.пожаловать.или.Посторонним.вход.воспрещен.(1964).Remux.[1080p].mkv
Формат                                   : Matroska
Версия формата                           : Version 2
Размер файла                             : 14,6 Гбайт
Продолжительность                        : 1 ч. 13 м.
Режим общего битрейта                    : Переменный
Общий поток                              : 28,6 Мбит/сек
Название фильма                          : Lelya_K for nnm-club.me
Дата кодирования                         : UTC 2013-05-18 02:58:30
Программа кодирования                    : mkvmerge v5.7.0 ('The Whirlwind') built on Aug  7 2012 14:11:40
Библиотека кодирования                   : libebml v1.2.3 + libmatroska v1.3.0

Видео
Идентификатор                            : 1
Формат                                   : AVC
Формат/Информация                        : Advanced Video Codec
Профиль формата                          : High@L4.1
Параметр CABAC формата                   : Да
Параметр ReFrames формата                : 4 кадра
Идентификатор кодека                     : V_MPEG4/ISO/AVC
Продолжительность                        : 1 ч. 13 м.
Вид битрейта                             : Переменный
Битрейт                                  : 26,0 Мбит/сек
Максимальный битрейт                     : 30,0 Мбит/сек
Ширина                                   : 1920 пикселей
Высота                                   : 1080 пикселей
Соотношение сторон                       : 16:9
Режим частоты кадров                     : Постоянный
Частота кадров                           : 23,976 кадра/сек
Стандарт вещания                         : NTSC
Цветовое пространство                    : YUV
Субдискретизация насыщенности            : 4:2:0
Битовая глубина                          : 8 бит
Тип развёртки                            : Прогрессивная
Бит/(Пиксели*Кадры)                      : 0.523
Размер потока                            : 13,3 Гбайт (91%)
Заголовок                                : Добро.пожаловать.или.Посторонним.вход.воспрещен.(1964).Remux.[1080p]
Язык                                     : Russian
Default                                  : Да
Forced                                   : Нет
Основные цвета                           : BT.709
Характеристики трансфера                 : BT.709
Коэффициенты матрицы                     : BT.709

Аудио #1
Идентификатор                            : 2
Формат                                   : DTS
Формат/Информация                        : Digital Theater Systems
Профиль формата                          : MA / Core
Идентификатор кодека                     : A_DTS
Продолжительность                        : 1 ч. 13 м.
Вид битрейта                             : Переменный
Битрейт                                  : 1561 Кбит/сек / 1510 Кбит/сек
Каналы                                   : 6 каналов
Расположение каналов                     : Front: L C R, Side: L R, LFE
Частота                                  : 48,0 КГц
Битовая глубина                          : 24 бит
Метод сжатия                             : Без потерь / Lossy
Заголовок                                : DTS-HD MA 5.1 / 3256 kbps
Язык                                     : Russian
Default                                  : Да
Forced                                   : Нет

Аудио #2
Идентификатор                            : 3
Формат                                   : AC-3
Формат/Информация                        : Audio Coding 3
Расширение режима                        : CM (complete main)
Параметр Endianness формата              : Big
Идентификатор кодека                     : A_AC3
Продолжительность                        : 1 ч. 13 м.
Вид битрейта                             : Постоянный
Битрейт                                  : 448 Кбит/сек
Каналы                                   : 6 каналов
Расположение каналов                     : Front: L C R, Side: L R, LFE
Частота                                  : 48,0 КГц
Битовая глубина                          : 16 бит
Метод сжатия                             : С потерями
Размер потока                            : 234 Мбайт (2%)
Заголовок                                : AC3 5.1 / 448 kbps
Язык                                     : Russian
Default                                  : Нет
Forced                                   : Нет

Меню
00:00:00.000                             : ru:Chapter 00
00:03:39.636                             : ru:Chapter 01
00:07:41.252                             : ru:Chapter 02
00:13:04.617                             : ru:Chapter 03
00:16:49.591                             : ru:Chapter 04
00:23:13.517                             : ru:Chapter 05
00:26:13.488                             : ru:Chapter 06
00:33:42.437                             : ru:Chapter 07
00:38:29.348                             : ru:Chapter 08
00:42:10.778                             : ru:Chapter 09
00:46:03.093                             : ru:Chapter 10
00:49:15.327                             : ru:Chapter 11
00:57:17.350                             : ru:Chapter 12
01:01:05.662                             : ru:Chapter 13
01:05:37.725                             : ru:Chapter 14



[+] Дополнительно...
Полная реставрация изображения и звука. Исходные киноматериалы подготовлены Госфильмофондом России. Покадровая цифровая реставрация изображения, ремастеринг звука и авторинг проведены объединением «Крупный план».



[+] Награды...
Приз на МКФ фильмов для молодёжи в Канне в 1966 году.



[+] Знаете ли вы, что...
Съёмки фильма проходили в пионерском лагере, принадлежащем тресту «Воркутауголь», и расположенном в микрорайоне Алексин-Бор города Алексин Тульской области. В 70-х годах XX века на его территории были построены новые корпуса и от прежнего лагеря ничто не сохранилось.

Во время съёмок фильма Евгений Евстигнеев, исполнитель роли товарища Дынина, научил детей играть в карты.
Этот фильм — дипломная работа режиссёра Элема Климова.
Фильм мог не выйти в широкий прокат, так как цензура посчитала, что бабушка на портрете (сцена «похорон» бабушки Иночкина) очень уж похожа на товарища Хрущёва. Да и завуалированные насмешки над кукурузой как царицей полей сыграли свою роль. Однако по благоприятному стечению обстоятельств фильм увидел сам Никита Сергеевич, и тот ему очень понравился.

Роль Кости Иночкина прославила на всю страну тринадцатилетнего Витю Косых (потом он сыграет Даньку в «Неуловимых мстителях»). Ассистенты Климова нашли его в обычной школе, куда пришли за ребятами, которые умеют плавать.
Съёмки «Добро пожаловать…» были в самом разгаре, когда картину попытались закрыть. В съёмочную группу пришла телеграмма от дирекции «Мосфильма» с требованием свернуть все работы и возвращаться из экспедиции в Москву. И лишь мудрость директора съёмочной группы, который сказал: «А мы этой телеграммы не получали», позволила режиссёру Элему Климову закончить картину.



Скриншоты:
[+] Всего файлов в раздаче - 1:
Добро.пожаловать.или.Посторонним.вход.воспрещен.(1964).Remux.[1080p].mkv14.62 GB

Текущая раздача:
ДатаКомментарии    РазмерПиры
2018-05-20 U Добро пожаловать, или Посторонним вход воспрещен (1964) BDRemux 1080p | Реставрация 14.62 GB ↑ 43 ↓ 28

Показать еще раздачи по запросу добро:
2018-07-30 U Добро пожаловать в Zомбилэнд / Zombieland (2009) WEB-DL 1080p | D, A | Open Matte 2К9.51 GB ↑ 20 ↓ 8
2018-05-27 U Stellaris: Galaxy Edition [v 2.1.0 + DLC's] (2016) PC | RePack от Добро 6.58 GB ↑ 279 ↓ 39
2018-05-05 U Добро пожаловать в Уиллитс / Welcome to Willits (2016) HDRip | GreenРай Studio 1.37 GB ↑ 23 ↓ 10
2018-03-19 U Добро пожаловать, незнакомец / Welcome the Stranger (2018) WEB-DLRip от MegaPeer | iTunes 1.45 GB ↑ 101 ↓ 71
2018-03-19 U Добро пожаловать, незнакомец / Welcome the Stranger (2018) WEB-DL 1080p | iTunes 3.52 GB ↑ 126 ↓ 54
2018-01-25 U Добро пожаловать на Юг 2, или Соседям вход воспрещен / Non c'è più religione (2016) DVDRip | L2 1.39 GB ↑ 80 ↓ 42
2017-12-12 U Добро пожаловать в рай! 2: Риф / Into the Blue 2: The Reef (2009) WEBRip-AVC от ExKinoRay | P 2К744.08 MB ↑ 67 ↓ 33

Отзывы
Зарегистрируйтесь чтобы добавить комментарий.
Обратная связь
Copyleft ©