↑↓Torrent.by
Поиск
Логин: Регистрация
Пароль: Восстановить пароль
Загрузка...

Вечера на хуторе близ Диканьки (1962) WEB-DLRip 720p от KORSAR

Скачать vechera-na-hutore-bliz-dikanki-1962-web-dlrip-720p-ot-korsar.torrent
U Магнитная ссылка Размер: 3.65 GB Раздают: 209 Качают: 16 Добавлен: 2018-05-21 11:58:43
Вечера на хуторе близ Диканьки (1962) WEB-DLRip 720p от KORSAR

Информация о фильме
Название: Вечера на хуторе близ Диканьки
Год выхода: 1962
Жанр:  Сказка, комедия, экранизация
Страна: СССР
Студия: Киностудия имени М. Горького. Второе творческое объединение
Продолжительность: 01:06:00
Перевод: Не требуется
Режиссёр: Александр Роу
В ролях: Александр Хвыля, Людмила Мызникова, Юрий Тавров, Людмила Хитяева, Сергей Мартинсон, Анатолий Кубацкий, Вера Алтайская, Дмитрий Капка, Николай Яковченко, Марина Сидорчук, Александр Радунский, Георгий Милляр, Михаил Васильев, Юрий Григорьев, Александр Демьяненко, Лидия Королёва, Ирина Мурзаева, Наталья Скворцова, Алексей Смирнов, Михаил Трояновский, Зоя Василькова, Юрий Чекулаев

О фильме
По повести Н.В.Гоголя "Ночь перед Рождеством". Красавица Оксана пообещала кузнецу Вакуле выйти за него замуж, если он достанет ей черевички не хуже тех, которые сама царица носит. Что бы делал Вакула, если бы в ночь под Рождество не нашёл на улице мешок с чёртом?

Файл
Качество: WEB-DLRip 720p
Видео: MPEG-4 AVC, 960x720, 7094 Kbps, 25.000 fps
Аудио 1: 48 kHz, AC3, 6 ch, 448 kbps
Аудио 2: 48 kHz, AC3, 1 ch, 224 kbps
Субтитры: Русские, английские
Навигация по главам: Есть

Релиз:
[+] MediaInfo
Общее
Уникальный идентификатор                 : 204325270553066963603384570335699608254 (0x99B79D9E355509E9AD116784B0F322BE)
Полное имя                               : Вечера на хуторе близ Диканьки_1961_WEB-DLRip_720p_KORSAR.mkv
Формат                                   : Matroska
Версия формата                           : Version 2
Размер файла                             : 3,65 Гбайт
Продолжительность                        : 1 ч. 6 м.
Общий поток                              : 7924 Кбит/сек
Название фильма                          : Вечера на хуторе близ Диканьки_1961_WEB-DLRip_720p_KORSAR
Дата кодирования                         : UTC 2018-05-19 01:24:31
Программа кодирования                    : mkvmerge v5.8.0 ('No Sleep / Pillow') built on Sep  2 2012 15:37:04
Библиотека кодирования                   : libebml v1.2.3 + libmatroska v1.3.0

Видео
Идентификатор                            : 1
Формат                                   : AVC
Формат/Информация                        : Advanced Video Codec
Профиль формата                          : High@L4.1
Параметр CABAC формата                   : Да
Параметр RefFrames формата               : 12 кадров
Идентификатор кодека                     : V_MPEG4/ISO/AVC
Продолжительность                        : 1 ч. 6 м.
Битрейт                                  : 7094 Кбит/сек
Ширина                                   : 960 пикселей
Высота                                   : 720 пикселей
Соотношение сторон                       : 4:3
Режим частоты кадров                     : Постоянный
Частота кадров                           : 25,000 кадров/сек
Цветовое пространство                    : YUV
Субдискретизация насыщенности            : 4:2:0
Битовая глубина                          : 8 бит
Тип развёртки                            : Прогрессивная
Бит/(Пиксели*Кадры)                      : 0.411
Размер потока                            : 3,27 Гбайт (90%)
Библиотека кодирования                   : x264 core 152 r2851kMod ba24899
Настройки программы                      : cabac=1 / ref=12 / deblock=1:-2:-2 / analyse=0x3:0x113 / me=umh / subme=10 / psy=1 / fade_compensate=0.00 / psy_rd=1.03:0.10 / mixed_ref=1 / me_range=40 / chroma_me=1 / trellis=2 / 8x8dct=1 / cqm=0 / deadzone=21,11 / fast_pskip=1 / chroma_qp_offset=-3 / threads=12 / lookahead_threads=2 / sliced_threads=0 / nr=0 / decimate=1 / interlaced=0 / bluray_compat=0 / constrained_intra=0 / bframes=8 / b_pyramid=2 / b_adapt=2 / b_bias=0 / direct=1 / weightb=1 / open_gop=0 / weightp=2 / keyint=250 / keyint_min=25 / scenecut=40 / intra_refresh=0 / rc=crf / mbtree=0 / crf=18.0000 / qcomp=0.63 / qpmin=0 / qpmax=39 / qpstep=4 / ip_ratio=1.40 / pb_ratio=1.30 / aq=3:0.80
Язык                                     : English
Default                                  : Да
Forced                                   : Нет
Цветовой диапазон                        : Limited
Основные цвета                           : BT.709
Характеристики трансфера                 : BT.709
Коэффициенты матрицы                     : BT.709

Аудио #1
Идентификатор                            : 2
Формат                                   : AC-3
Формат/Информация                        : Audio Coding 3
Параметр Endianness формата              : Big
Идентификатор кодека                     : A_AC3
Продолжительность                        : 1 ч. 6 м.
Вид битрейта                             : Постоянный
Битрейт                                  : 448 Кбит/сек
Каналы                                   : 6 каналов
Расположение каналов                     : Front: L C R, Side: L R, LFE
Частота                                  : 48,0 КГц
Частота кадров                           : 31,250 кадров/сек (1536 SPF)
Битовая глубина                          : 16 бит
Метод сжатия                             : С потерями
Размер потока                            : 211 Мбайт (6%)
Язык                                     : Russian
Default                                  : Да
Forced                                   : Нет

Аудио #2
Идентификатор                            : 3
Формат                                   : AC-3
Формат/Информация                        : Audio Coding 3
Параметр Endianness формата              : Big
Идентификатор кодека                     : A_AC3
Продолжительность                        : 1 ч. 6 м.
Вид битрейта                             : Постоянный
Битрейт                                  : 224 Кбит/сек
Каналы                                   : 1 канал
Расположение каналов                     : Front: C
Частота                                  : 48,0 КГц
Частота кадров                           : 31,250 кадров/сек (1536 SPF)
Битовая глубина                          : 16 бит
Метод сжатия                             : С потерями
Размер потока                            : 106 Мбайт (3%)
Язык                                     : Russian
Default                                  : Нет
Forced                                   : Нет

Текст #1
Идентификатор                            : 4
Формат                                   : UTF-8
Идентификатор кодека                     : S_TEXT/UTF8
Идентификатор кодека/Информация          : UTF-8 Plain Text
Язык                                     : Russian
Default                                  : Нет
Forced                                   : Нет

Текст #2
Идентификатор                            : 5
Формат                                   : UTF-8
Идентификатор кодека                     : S_TEXT/UTF8
Идентификатор кодека/Информация          : UTF-8 Plain Text
Язык                                     : English
Default                                  : Нет
Forced                                   : Нет

Меню
00:00:00.000                             : en:Chapter 1
00:03:35.320                             : en:Chapter 2
00:08:26.560                             : en:Chapter 3
00:13:52.000                             : en:Chapter 4
00:19:25.400                             : en:Chapter 5
00:23:41.360                             : en:Chapter 6
00:30:04.320                             : en:Chapter 7
00:34:46.080                             : en:Chapter 8
00:40:33.360                             : en:Chapter 9
00:48:38.400                             : en:Chapter 10
00:54:04.880                             : en:Chapter 11
00:57:37.280                             : en:Chapter 12
01:00:09.280                             : en:Chapter 13
01:02:56.800                             : en:Chapter 14



[+] x264
x264 [info]: frame I:748   Avg QP:17.93 size: 155847
x264 [info]: frame P:20903 Avg QP:19.27 size: 88121
x264 [info]: frame B:77349 Avg QP:21.58 size: 21072
x264 [info]: consecutive B-frames:  1.3%  1.0%  4.6% 28.2% 21.4% 41.9%  1.3%  0.2%  0.0%



Скриншоты:
[+] Всего файлов в раздаче - 1:
Вечера на хуторе близ Диканьки_1961-WEB-DLRip 720p_KORSAR.mkv3.65 GB

Текущая раздача:
ДатаКомментарии    РазмерПиры
2018-05-21 U Вечера на хуторе близ Диканьки (1962) WEB-DLRip 720p от KORSAR 3.65 GB ↑ 209 ↓ 16

Похожие раздачи по запросу - вечера:
2017-11-21 U 6.66 вечера / 6:66 PM (2017) HDTVRip | L2 1.35 GB ↑ 228 ↓ 82
2013-11-11 U Вечера на хуторе близ Диканьки - Н. В. Гоголь (2008) MP3 15К503.36 MB ↑ 2780 ↓ 37
2013-11-11 U Вечера на хуторе близ Диканьки (2001) мюзикл DVDRip 1.46 GB ↑ 10947 ↓ 42
2013-11-09 U Вечера на хуторе близ Диканьки (1961) DVDRip-AVC 2К1.45 GB ↑ 90 ↓ 65534

Отзывы
Зарегистрируйтесь чтобы добавить комментарий.
Обратная связь
Copyleft ©